[bittorrent] gd1969-08-03.137365.sbd.miller.eaton.flac24

Automated Mailer noreply-bt.e at etree.org
Sat Dec 10 23:36:38 UTC 2016


Band:           Grateful Dead
Torrent Name:   gd1969-08-03.137365.sbd.miller.eaton.flac24
Uploaded by:    greendude
DB Link:        
Details:        http://bt.etree.org/details.php?id=590236

Contact the seeder at http://db.etree.org/greendude

If the link to this show does not work, it was probably removed for
being non-trade-friendly.

Description / text file:
-------------------------
Grateful Dead - August 3, 1969
Family Dog At The Great Highway - San Francisco, CA  

Recording Info:
SBD > Reel Master (10" 1/2 track 15ips)

Transfer Info:
Reel Master (Studer A80) > Sonoma Systems DSD > Dobly Stretched Decode > WAV (24-bit/96k)

Mastering Info:
WAV > Adobe Audition CC 2015 > Samplitude Pro X3 Suite > FLAC/24 
(1 DVD FLAC)

Reel Transfer by Rob Eaton
Mastered By Charlie Miller
charliemiller87 at earthlink.net
November 15, 2016

Patch Info:
SBD > Cassette Master > Dat > FLAC (shnid=30652) supplies:
Dark Star (12:44 thru the end of the show)

Notes:
-- There are numerous guests on stage
-- There is some weird stuff going on with the tape during Caution
-- Thanks to Joe B. Jones for his help with the pitch correction

Setlist:
01 - Tuning
02 - Hard To Handle
03 - Beat It On Down The Line
04 - Hi-Heel Sneakers
05 - High Time
06 - Mama Tried
07 - Dark Star
08 - Alligator ->
09 - Drums ->
10 - The Other One ->
11 - Caution (Do Not Stop On Tracks) ->
12 - And We Bid You Goodnight


SHNTOOL OUTPUT:
    length     expanded size    cdr  WAVE problems  fmt   ratio  filename
     4:42.464     162699248 B   cxx   --   ---xx   flac  0.5008  01 Tuning.flac
     7:38.584     264144410 B   cxx   --   ---xx   flac  0.5780  02 Hard To Handle.flac
     4:34.544     158137274 B   cxx   --   ---xx   flac  0.5754  03 Beat It On Down The Line.flac
     7:42.238     266249342 B   cxx   --   ---xx   flac  0.5813  04 Hi-Heel Sneakers.flac
     6:17.168     217248548 B   cxx   --   ---xx   flac  0.5579  05 High Time.flac
     5:22.848     185960618 B   cxx   --   ---xx   flac  0.5627  06 Mama Tried.flac
    23:26.318     810039062 B   cxx   --   ---xx   flac  0.5648  07 Dark Star.flac
     4:01.684     139209926 B   cxx   --   ---xx   flac  0.5828  08 Alligator.flac
     6:43.392     232353830 B   cxx   --   ---xx   flac  0.5417  09 Drums.flac
    17:45.538     613750028 B   cxx   --   ---xx   flac  0.5766  10 The Other One.flac
    17:56.116     619843082 B   cxx   --   ---xx   flac  0.4727  11 Caution (Do Not Stop On Tracks).flac
     2:14.074      77226596 B   cxx   --   ---xx   flac  0.4225  12 And We Bid You Goodnight.flac
   108:24.968    3746861964 B                            0.5471  (12 files)




More information about the bittorrent mailing list