[bittorrent] gd93-05-21.137355.set2.sbd.miller.flac1648

Automated Mailer noreply-bt.e at etree.org
Thu Dec 8 19:39:32 UTC 2016


Band:           Grateful Dead
Torrent Name:   gd93-05-21.137355.set2.sbd.miller.flac1648
Uploaded by:    greendude
DB Link:        
Details:        http://bt.etree.org/details.php?id=590208

Contact the seeder at http://db.etree.org/greendude

If the link to this show does not work, it was probably removed for
being non-trade-friendly.

Description / text file:
-------------------------
Grateful Dead - May 21, 1993
Shoreline Amphitheatre - Mountain View, CA

Recording Info:
SBD > Dat Master (Panasonic SV-3700/48k)

Transfer Info:
Dat Master (Sony R500) > Sound Devices 744T > Samplitude Pro X3 Suite > FLAC/48k
(1 DVD FLAC)

All Transfers and Mastering By Charlie Miller
charliemiller87 at earthlink.net
December 7, 2016

Notes:
-- I'll post Set 1 when I find it

Set 2:
01 - Tuning
02 - China Cat Sunflower >
03 - I Know You Rider
04 - Way To Go Home
05 - Estimated Prophet >
06 - He's Gone >
07 - Drums >
08 - Space >
09 - All Along The Watchtower >
10 - Morning Dew

Encore:
11 - Encore Break
12 - Baba O'Riley >
13 - Tomorrow Never Knows


SHNTOOL OUTPUT:
    length     expanded size    cdr  WAVE problems  fmt   ratio  filename
     2:00.423      23121284 B   cxx   --   ---xx   flac  0.3411  01 Tuning.flac
     7:26.827      85790876 B   cxx   --   ---xx   flac  0.5539  02 China Cat Sunflower.flac
     7:07.268      82035428 B   cxx   --   ---xx   flac  0.5317  03 I Know You Rider.flac
     8:17.497      95519416 B   cxx   --   ---xx   flac  0.5555  04 Way To Go Home.flac
    13:18.568     153325028 B   cxx   --   ---xx   flac  0.5472  05 Estimated Prophet.flac
    14:03.348     161922928 B   cxx   --   ---xx   flac  0.4928  06 He's Gone.flac
    16:03.230     184940288 B   cxx   --   ---xx   flac  0.4723  07 Drums.flac
    11:56.105     137492156 B   cxx   --   ---xx   flac  0.4018  08 Space.flac
     7:25.354      85508064 B   cxx   --   ---xx   flac  0.5433  09 All Along The Watchtower.flac
    12:33.895     144747848 B   cxx   --   ---xx   flac  0.5039  10 Morning Dew.flac
     0:47.128       9048600 B   cxx   --   ---xx   flac  0.3164  11 Encore Break.flac
     3:36.054      41482456 B   cxx   --   ---xx   flac  0.5746  12 Baba O'Riley.flac
     5:40.642      65403276 B   cxx   --   ---xx   flac  0.5166  13 Tomorrow Never Knows.flac
   110:16.339    1270337648 B                            0.5024  (13 files)




More information about the bittorrent mailing list