[bittorrent] gd1988-03-17.137354.sbd.GEMS.flac16

Automated Mailer noreply-bt.e at etree.org
Thu Dec 8 19:28:24 UTC 2016


Band:           Grateful Dead
Torrent Name:   gd1988-03-17.137354.sbd.GEMS.flac16
Uploaded by:    greendude
DB Link:        
Details:        http://bt.etree.org/details.php?id=590206

Contact the seeder at http://db.etree.org/greendude

If the link to this show does not work, it was probably removed for
being non-trade-friendly.

Description / text file:
-------------------------
Grateful Dead
Thursday, March 17, 1988
Henry J. Kaiser Auditorium
Oakland, CA

Soundboard

Sony L-750ESX-HFB Dynamicron EXCELLENT SUPER HIFI VIDEO CASSETTE->
Sony SLO-1800 STEREO VIDEOCASSETTE RECORDER->
Sony PCM-601ESD DIGITAL AUDIO PROCESSOR-> SP/DIF->
Mytek Stereo 192 Sample Rate Converter-> Upsampled to 44.1kHz/24bit->SP/DIF->
RME FIREFACE 800-> FireWire 400->
Lenovo K450e Desktop PC-> WaveLab 6.11

This recording was gratefully supplied by PO and Stucco TINA Holmes.
 
Editing and Mastering by Jamie Waddell in Wavelab 7.1
Critical Listening assistance from John Wenzel
Track, FLAC and Pack by Norm

16 bit 44.1kHz
a project **GEMS** Betamania Release 2016-12-07

--Set 1--
01 tuning
02 Hell In A Bucket >
03 Sugaree
04 New Minglewood Blues
05 tuning
06 Ramble On Rose
07 tuning
08 Stuck Inside Of Mobile With The Memphis Blues Again
09 tuning
10 Row Jimmy
11 Let It Grow

--Set 2--
12 tuning
13 China Cat Sunflower >
14 I Know You Rider >
15 Estimated Prophet >
16 Eyes Of The World >
17 Drums >
18 Space >
19 Goin' Down The Road Feeling Bad >
20 I Need A Miracle >
21 Dear Mr. Fantasy >
22 Hey Jude
23 tuning
Encore:
24 Black Muddy River

Notes:
-- same patch on Let it Grow as circulating shnid
-- channels are correct
-- Drums with Hamza El-Din.
-- First Bob Weir "Memphis Blues"

originally shared at www.shnflac.net

SHNTOOL OUTPUT:
    length     expanded size    cdr  WAVE problems  fmt   ratio  filename
     1:22.47       14575388 B   ---   --   ---xx   flac  0.4524  gd1988-03-17.s1t01.flac
     5:55.50       62739644 B   ---   --   ---xx   flac  0.6443  gd1988-03-17.s1t02.flac
     9:53.00      104605244 B   ---   --   ---xx   flac  0.5895  gd1988-03-17.s1t03.flac
     7:13.05       76393004 B   ---   --   ---xx   flac  0.6258  gd1988-03-17.s1t04.flac
     1:28.35       15605564 B   ---   --   ---xx   flac  0.3509  gd1988-03-17.s1t05.flac
     6:41.18       70778780 B   ---   --   ---xx   flac  0.5683  gd1988-03-17.s1t06.flac
     1:15.64       13380572 B   ---   --   ---xx   flac  0.3707  gd1988-03-17.s1t07.flac
     8:42.37       92167868 B   ---   --   ---xx   flac  0.6443  gd1988-03-17.s1t08.flac
     1:50.69       19566332 B   ---   --   ---xx   flac  0.3713  gd1988-03-17.s1t09.flac
     8:21.26       88437596 B   ---   --   ---xx   flac  0.5589  gd1988-03-17.s1t10.flac
    12:08.40      128513324 B   ---   --   ---xx   flac  0.6010  gd1988-03-17.s1t11.flac
     2:35.67       27499628 B   ---   --   ---xx   flac  0.3973  gd1988-03-17.s2t01.flac
     5:36.46       59378636 B   ---   --   ---xx   flac  0.6182  gd1988-03-17.s2t02.flac
     5:30.45       58317884 B   ---   --   ---xx   flac  0.6147  gd1988-03-17.s2t03.flac
    10:52.09      115034012 B   ---   --   ---xx   flac  0.5912  gd1988-03-17.s2t04.flac
     8:45.60       92751164 B   ---   --   ---xx   flac  0.6145  gd1988-03-17.s2t05.flac
    13:08.20      139050284 B   ---   --   ---xx   flac  0.4203  gd1988-03-17.s2t06.flac
     7:10.23       75906140 B   ---   --   ---xx   flac  0.4158  gd1988-03-17.s2t07.flac
     5:14.72       55558988 B   ---   --   ---xx   flac  0.6124  gd1988-03-17.s2t08.flac
     3:20.38       35369420 B   ---   --   ---xx   flac  0.6290  gd1988-03-17.s2t09.flac
     4:15.02       44986748 B   ---   --   ---xx   flac  0.6113  gd1988-03-17.s2t10.flac
     2:29.27       26347148 B   ---   --   ---xx   flac  0.6315  gd1988-03-17.s2t11.flac
     3:27.31       36587756 B   ---   --   ---xx   flac  0.4582  gd1988-03-17.s2t12.flac
     6:43.68       71249180 B   ---   --   ---xx   flac  0.5305  gd1988-03-17.s2t13.flac
   144:03.74     1524800304 B                            0.5600  (24 files)



More information about the bittorrent mailing list