[bittorrent] The Cazanovas Blues Jam Darwin's Burgers And Blues Marietta, Georgia 12/7/2016 (Nakamichi CM-301'S FOB)

Automated Mailer noreply-bt.e at etree.org
Thu Dec 8 03:49:53 UTC 2016


Band:           Other
Torrent Name:   The Cazanovas Blues Jam Darwin's Burgers And Blues Marietta, Georgia 12/7/2016 (Nakamichi CM-301'S FOB)
Uploaded by:    zmanatl
DB Link:        
Details:        http://bt.etree.org/details.php?id=590202

Contact the seeder at http://db.etree.org/zmanatl

If the link to this show does not work, it was probably removed for
being non-trade-friendly.

Description / text file:
-------------------------
The Cazanovas Blues Jam
Darwin's Burgers And Blues
Marietta, Georgia
12/7/2016 

Source: Nakamichi CM301's>Lunatec V2>Benchmark AD2K>
Sound Devices 722 (24/44)
FOB/DFC/KFC/ZFC/AARP 5' From Stage, 5' High
DSP: Sound Devices 722>Sound Forge 10.0>CD Wave>flac(16)
ID3 Tagged In Foobar 2000
Recorded By: Z-Man
Seeded By: Z-Man

Disc I 

01 My Babe
02 I Can Tell You Don't Love Me Anymore
03 Band Introductions
04 ?
05 How Many More Years
06 Just Getting By
07 Walkin' To My Baby >
08 Rudolph The Red-Nosed Reindeer

thecazanovas2016-12-07d01t01.flac:c0cffacbe0a29f477d0330ce7b69e4f0
thecazanovas2016-12-07d01t02.flac:3642a88f13a9994162d370fb063fd868
thecazanovas2016-12-07d01t03.flac:767abf6e17009be07e974c6da89893d7
thecazanovas2016-12-07d01t04.flac:91b378ffdb0332cc263b6b10c2b9f75f
thecazanovas2016-12-07d01t05.flac:fee26feec3fa28818e75312f118223d3
thecazanovas2016-12-07d01t06.flac:6bcee7a08f4988007ce6ac16cbfdcde7
thecazanovas2016-12-07d01t07.flac:2210031b60b1b7b58832fb63bb65ad70
thecazanovas2016-12-07d01t08.flac:ef99c2e7e96c648cc750bd3341ff3c0b

  length     expanded size    cdr  WAVE problems  fmt   ratio  filename
     5:46.56       61166156 B   ---   --   ---xx   flac  0.4941  thecazanovas2016-12-07d01t01.flac
     5:56.08       62817260 B   ---   --   ---xx   flac  0.5850  thecazanovas2016-12-07d01t02.flac
     1:20.58       14248460 B   ---   --   ---xx   flac  0.3613  thecazanovas2016-12-07d01t03.flac
     6:56.55       73511804 B   ---   --   ---xx   flac  0.4815  thecazanovas2016-12-07d01t04.flac
     8:20.17       88240028 B   ---   --   ---xx   flac  0.4832  thecazanovas2016-12-07d01t05.flac
     5:14.50       55507244 B   ---   --   ---xx   flac  0.4814  thecazanovas2016-12-07d01t06.flac
     5:20.38       56537420 B   ---   --   ---xx   flac  0.4672  thecazanovas2016-12-07d01t07.flac
     2:36.14       27551372 B   ---   --   ---xx   flac  0.4902  thecazanovas2016-12-07d01t08.flac
    41:31.71      439579744 B                            0.4932  (8 files)























More information about the bittorrent mailing list