[bittorrent] gd93-05-23.137351.sbd.miller.flac1648

Automated Mailer noreply-bt.e at etree.org
Thu Dec 8 02:29:48 UTC 2016


Band:           Grateful Dead
Torrent Name:   gd93-05-23.137351.sbd.miller.flac1648
Uploaded by:    greendude
DB Link:        
Details:        http://bt.etree.org/details.php?id=590199

Contact the seeder at http://db.etree.org/greendude

If the link to this show does not work, it was probably removed for
being non-trade-friendly.

Description / text file:
-------------------------
Grateful Dead - May 23, 1993
Shoreline Amphitheatre - Mountain View, CA

Recording Info:
SBD > Dat Master (Panasonic SV-3700/48k)

Transfer Info:
Dat Master (Sony R500) > Sound Devices 744T > Samplitude Pro X3 Suite > FLAC/48k
(1 DVD FLAC)

All Transfers and Mastering By Charlie Miller
charliemiller87 at earthlink.net
December 6, 2016

Set 1:
01 - Tuning
02 - Jack Straw
03 - Loser
04 - It's All Over Now
05 - Just Like Tom Thumb's Blues
06 - Bird Song
07 - The Music Never Stopped

Set 2:
08 - Tuning
09 - Iko Iko
10 - Wave To The Wind
11 - Saint Of Circumstance >
12 - Terrapin Station >
13 - Drums >
14 - Space >
15 - I Need A Miracle >
16 - Days Between >
17 - Not Fade Away

Encore:
18 - Encore Break
19 - Lucy In The Sky With Diamonds


SHNTOOL OUTPUT:
    length     expanded size    cdr  WAVE problems  fmt   ratio  filename
     0:56.705      10887484 B   cxx   --   ---xx   flac  0.3472  01 Tuning.flac
     7:15.004      83520864 B   cxx   --   ---xx   flac  0.5133  02 Jack Straw.flac
     7:43.609      89012900 B   cxx   --   ---xx   flac  0.5250  03 Loser.flac
     7:11.549      82857392 B   cxx   --   ---xx   flac  0.5200  04 It's All Over Now.flac
     5:26.667      62720124 B   cxx   --   ---xx   flac  0.5511  05 Just Like Tom Thumb's Blues.flac
    13:24.563     154476104 B   cxx   --   ---xx   flac  0.5411  06 Bird Song.flac
     8:25.510      97058008 B   cxx   --   ---xx   flac  0.5656  07 Music Never Stopped.flac
     0:47.404       9101660 B   cxx   --   ---xx   flac  0.3226  08 Tuning.flac
    10:05.226     116203424 B   cxx   --   ---xx   flac  0.5279  09 Iko Iko.flac
     7:49.371      90119276 B   cxx   --   ---xx   flac  0.5640  10 Wave To The Wind.flac
     7:40.369      88390824 B   cxx   --   ---xx   flac  0.5613  11 Saint Of Circumstance.flac
    16:42.690     192516564 B   cxx   --   ---xx   flac  0.5230  12 Terrapin Station.flac
    12:51.033     148038364 B   cxx   --   ---xx   flac  0.4607  13 Drums.flac
     9:44.874     112295888 B   cxx   --   ---xx   flac  0.4228  14 Space.flac
     4:54.725      56587232 B   cxx   --   ---xx   flac  0.5686  15 I Need A Miracle.flac
     9:30.042     109448100 B   cxx   --   ---xx   flac  0.4882  16 Days Between.flac
     7:50.650      90364780 B   cxx   --   ---xx   flac  0.4968  17 Not Fade Away.flac
     0:53.499      10271852 B   cxx   --   ---xx   flac  0.3284  18 Encore Break.flac
     4:10.349      48067004 B   cxx   --   ---xx   flac  0.5812  19 Lucy In The Sky With Diamonds.flac
   143:23.839    1651937844 B                            0.5160  (19 files)




More information about the bittorrent mailing list