[bittorrent] gd93-05-22.137350.sbd.miller.flac1648

Automated Mailer noreply-bt.e at etree.org
Thu Dec 8 02:27:06 UTC 2016


Band:           Grateful Dead
Torrent Name:   gd93-05-22.137350.sbd.miller.flac1648
Uploaded by:    greendude
DB Link:        
Details:        http://bt.etree.org/details.php?id=590198

Contact the seeder at http://db.etree.org/greendude

If the link to this show does not work, it was probably removed for
being non-trade-friendly.

Description / text file:
-------------------------
Grateful Dead - May 22, 1993
Shoreline Amphitheatre - Mountain View, CA

Recording Info:
SBD > Dat Master (Panasonic SV-3700/48k)

Transfer Info:
Dat Master (Sony R500) > Sound Devices 744T > Samplitude Pro X3 Suite > FLAC/48k
(1 DVD FLAC)

All Transfers and Mastering By Charlie Miller
charliemiller87 at earthlink.net
December 6, 2016

Set 1:
01 - Tuning
02 - Mississippi Half-Step Uptown Toodeloo
03 - Little Red Rooster
04 - Brown Eyed Women
05 - Broken Arrow
06 - Supplication
07 - Stagger Lee
08 - Promised Land

Set 2:
09 - Tuning
10 - Foolish Heart >
11 - Man Smart (Woman Smarter)
12 - Ship Of Fools
13 - Corrina >
14 - Drums >
15 - Space >
16 - The Last Time >
17 - Stella Blue >
18 - One More Saturday Night

Encore:
19 - Encore Break
20 - I Fought The Law


SHNTOOL OUTPUT:
    length     expanded size    cdr  WAVE problems  fmt   ratio  filename
     4:26.729      51211984 B   cxx   --   ---xx   flac  0.3553  01 Tuning.flac
    10:03.798     115929220 B   cxx   --   ---xx   flac  0.5181  02 Mississippi Half-Step Uptown Toodeloo.flac
     9:21.143     107739412 B   cxx   --   ---xx   flac  0.5194  03 Little Red Rooster.flac
     7:30.015      86402836 B   cxx   --   ---xx   flac  0.5388  04 Brown Eyed Women.flac
     5:55.195      68197476 B   cxx   --   ---xx   flac  0.5148  05 Broken Arrow.flac
     5:13.737      60237568 B   cxx   --   ---xx   flac  0.5471  06 Supplication.flac
     6:41.506      77089200 B   cxx   --   ---xx   flac  0.5540  07 Stagger Lee.flac
     4:34.513      52706476 B   cxx   --   ---xx   flac  0.5750  08 Promised Land.flac
     1:24.207      16167740 B   cxx   --   ---xx   flac  0.3521  09 Tuning.flac
     8:47.203     101222932 B   cxx   --   ---xx   flac  0.5502  10 Foolish Heart.flac
     8:45.011     100802212 B   cxx   --   ---xx   flac  0.5267  11 Man Smart (Woman Smarter).flac
     7:15.429      83602344 B   cxx   --   ---xx   flac  0.5467  12 Ship Of Fools.flac
    12:04.187     139043936 B   cxx   --   ---xx   flac  0.5601  13 Corrina.flac
    14:57.498     172319680 B   cxx   --   ---xx   flac  0.4227  14 Drums.flac
    11:59.461     138136528 B   cxx   --   ---xx   flac  0.4005  15 Space.flac
     6:33.333      75520032 B   cxx   --   ---xx   flac  0.5688  16 The Last Time.flac
     9:14.395     106443892 B   cxx   --   ---xx   flac  0.5058  17 Stella Blue.flac
     4:52.077      56078804 B   cxx   --   ---xx   flac  0.5778  18 One More Saturday Night.flac
     1:05.249      12527784 B   cxx   --   ---xx   flac  0.3652  19 Encore Break.flac
     3:09.563      36396216 B   cxx   --   ---xx   flac  0.6006  20 I Fought The Law.flac
   143:54.247    1657776272 B                            0.5089  (20 files)




More information about the bittorrent mailing list