[bittorrent] gd91-05-12.137353.set1.sbd.miller.flac16

Automated Mailer noreply-bt.e at etree.org
Thu Dec 8 02:24:31 UTC 2016


Band:           Grateful Dead
Torrent Name:   gd91-05-12.137353.set1.sbd.miller.flac16
Uploaded by:    greendude
DB Link:        
Details:        http://bt.etree.org/details.php?id=590197

Contact the seeder at http://db.etree.org/greendude

If the link to this show does not work, it was probably removed for
being non-trade-friendly.

Description / text file:
-------------------------
Grateful Dead - May 12, 1991
Shoreline Amphitheatre - Mountain View, CA

Recording Info:
SBD > Dat Master > PCM

Transfer Info:
PCM (Sony SL-HF500) > Sony PCM601-ESD > Omega Fenix HT > Audio Audition 6.0 > FLAC

Mastering Info:
FLAC > Samplitude Pro X3 Suite > FLAC
(1 Disc Audio / 1 Disc FLAC)

Tapes supplied By David Gans
Transferred By David Minches
Mastered By Charlie Miller
charliemiller87 at earthlink.net
December 6, 2016

Set 1:
01 - Picasso Moon
02 - Althea
03 - C.C. Rider >
04 - It Takes A Lot To Laugh, It Takes A Train To Cry
05 - El Paso
06 - High Time
07 - Black-Throated Wind
08 - Deal


SHNTOOL OUTPUT:
    length     expanded size    cdr  WAVE problems  fmt   ratio  filename
     7:29.48       79316540 B   ---   --   ---xx   flac  0.5744  01 Picasso Moon.flac
     9:07.20       96537884 B   ---   --   ---xx   flac  0.5524  02 Althea.flac
     3:32.47       37507388 B   ---   --   ---xx   flac  0.5339  03 CC Rider.flac
     4:49.26       51040796 B   ---   --   ---xx   flac  0.5139  04 It Takes A Lot To Laugh, It Takes A Train To Cry.flac
     5:20.22       56499788 B   ---   --   ---xx   flac  0.5276  05 El Paso.flac
     7:18.36       77347916 B   ---   --   ---xx   flac  0.5036  06 High Time.flac
     6:05.38       64475420 B   ---   --   ---xx   flac  0.5546  07 Black Throated Wind.flac
    10:55.27      115605548 B   ---   --   ---xx   flac  0.5897  08 Deal.flac
    54:38.39      578331280 B                            0.5496  (8 files)




More information about the bittorrent mailing list