[bittorrent] gd91-04-01.137352.sbd.miller.flac16

Automated Mailer noreply-bt.e at etree.org
Thu Dec 8 02:20:56 UTC 2016


Band:           Grateful Dead
Torrent Name:   gd91-04-01.137352.sbd.miller.flac16
Uploaded by:    greendude
DB Link:        
Details:        http://bt.etree.org/details.php?id=590196

Contact the seeder at http://db.etree.org/greendude

If the link to this show does not work, it was probably removed for
being non-trade-friendly.

Description / text file:
-------------------------
Grateful Dead - April 1, 1991
Greensboro Coliseum - Greensboro, NC

Recording Info:
SBD > Dat Master > PCM

Transfer Info:
PCM (Sony SL-HF500) > Sony PCM601-ESD > Omega Fenix HT > Audio Audition 6.0 > FLAC

Mastering Info:
FLAC > Samplitude Pro X3 Suite > FLAC
(3 Discs Audio / 1 DVD FLAC)

Tapes supplied By David Gans
Transferred By David Minches
Mastered By Charlie Miller
charliemiller87 at earthlink.net
December 6, 2016

Set 1:
01 - Tuning
02 - Jack Straw >
03 - Peggy-O
04 - It's All Over Now
05 - Candyman
06 - Just Like Tom Thumb's Blues
07 - Picasso Moon
08 - Bird Song

Set 2:
09 - Tuning
10 - China Cat Sunflower >
11 - I Know You Rider
12 - Looks Like Rain
13 - Dark Star >
14 - Drums >
15 - Space >
16 - Dark Star >
17 - Playin' In The Band >
18 - Black Peter >
19 - Turn On Your Lovelight

Encore:
20 - Encore Break
21 - It's All Over Now, Baby Blue


SHNTOOL OUTPUT:
   length     expanded size    cdr  WAVE problems  fmt   ratio  filename
    2:25.40       25672124 B   ---   --   ---xx   flac  0.3407  01 Tuning.flac
    5:31.46       58496636 B   ---   --   ---xx   flac  0.5447  02 Jack Straw.flac
    7:21.34       77872412 B   ---   --   ---xx   flac  0.5093  03 Peggy-O.flac
    8:52.65       93997724 B   ---   --   ---xx   flac  0.5285  04 It's All Over Now.flac
    8:23.46       88837436 B   ---   --   ---xx   flac  0.4857  05 Candyman.flac
    6:20.00       67032044 B   ---   --   ---xx   flac  0.4947  06 Just Like Tom Thumb's Blues.flac
    6:51.22       72552188 B   ---   --   ---xx   flac  0.5867  07 Picasso Moon.flac
   16:46.44      177561932 B   ---   --   ---xx   flac  0.5155  08 Bird Song.flac
    2:25.44       25681532 B   ---   --   ---xx   flac  0.3208  09 Tuning.flac
    6:12.34       65700812 B   ---   --   ---xx   flac  0.5377  10 China Cat Sunflower.flac
    6:52.35       72759164 B   ---   --   ---xx   flac  0.5601  11 I Know You Rider.flac
   10:34.17      111877628 B   ---   --   ---xx   flac  0.4718  12 Looks Like Rain.flac
   23:30.00      248724044 B   ---   --   ---xx   flac  0.5008  13 Dark Star.flac
    7:47.34       82458812 B   ---   --   ---xx   flac  0.4002  14 Drums.flac
    9:05.25       96196844 B   ---   --   ---xx   flac  0.3671  15 Space.flac
    4:43.56       50052956 B   ---   --   ---xx   flac  0.4575  16 Dark Star.flac
    2:10.66       23087276 B   ---   --   ---xx   flac  0.5355  17 Playing In The Band Reprise.flac
    9:43.47      102951788 B   ---   --   ---xx   flac  0.5063  18 Black Peter.flac
    5:47.50       61328444 B   ---   --   ---xx   flac  0.5575  19 Turn On Your Lovelight.flac
    2:08.71       22746236 B   ---   --   ---xx   flac  0.3263  20 Encore Break.flac
    6:56.26       73443596 B   ---   --   ---xx   flac  0.5333  21 It's All Over Now, Baby Blue.flac
  160:31.52     1699031628 B                            0.4935  (21 files)
top



More information about the bittorrent mailing list