[bittorrent] gd93-09-22.137337.sbd.miller.flac1648

Automated Mailer noreply-bt.e at etree.org
Thu Dec 8 00:53:05 UTC 2016


Band:           Grateful Dead
Torrent Name:   gd93-09-22.137337.sbd.miller.flac1648
Uploaded by:    greendude
DB Link:        
Details:        http://bt.etree.org/details.php?id=590194

Contact the seeder at http://db.etree.org/greendude

If the link to this show does not work, it was probably removed for
being non-trade-friendly.

Description / text file:
-------------------------
Grateful Dead - September 22, 1993
Madison Square Garden - New York, NY

Recording Info:
SBD > Dat Master (Panasonic SV-3700/48k)

Transfer Info:
Dat Master (Sony R500) > Sound Devices 744T > Samplitude Pro X3 Suite > FLAC/48k
(1 DVD FLAC)

All Transfers and Mastering By Charlie Miller
charliemiller87 at earthlink.net
December 5, 2016

Notes:
-- Bird Song through end of show with David Murray on Sax
-- Turn On Your Lovelight with James Cotton on Harmonica

Set 1:
01 - Tuning
02 - Help On The Way >
03 - Slipknot! >
04 - Franklin's Tower
05 - New Minglewood Blues
06 - Ramble On Rose
07 - When I Paint My Masterpiece
08 - Bird Song

Set 2:
09 - Tuning
10 - Easy Answers >
11 - Lazy River Road
12 - Estimated Prophet >
13 - Dark Star >
14 - Drums >
15 - Space >
16 - Wharf Rat >
17 - Throwing Stones >
18 - Turn On Your Lovelight

Encore:
19 - Encore Break
20 - I Fought The Law


SHNTOOL OUTPUT:
    length     expanded size    cdr  WAVE problems  fmt   ratio  filename
     4:47.101      55123424 B   cxx   --   ---xx   flac  0.3433  01 Tuning.flac
     3:57.366      45574244 B   cxx   --   ---xx   flac  0.5425  02 Help On The Way.flac
     6:20.053      72970264 B   cxx   --   ---xx   flac  0.5298  03 Slipknot!.flac
    10:05.048     116169252 B   cxx   --   ---xx   flac  0.5464  04 Franklin's Tower.flac
     9:06.340     104897380 B   cxx   --   ---xx   flac  0.4641  05 New Minglewood Blues.flac
     7:59.785      92118820 B   cxx   --   ---xx   flac  0.5213  06 Ramble On Rose.flac
     5:23.359      62085020 B   cxx   --   ---xx   flac  0.4972  07 When I Paint My Masterpiece.flac
    13:58.918     161072396 B   cxx   --   ---xx   flac  0.5260  08 Bird Song.flac
     1:55.916      22255956 B   cxx   --   ---xx   flac  0.3130  09 Tuning.flac
     6:20.225      73003204 B   cxx   --   ---xx   flac  0.5241  10 Easy Answers.flac
     7:42.101      88723496 B   cxx   --   ---xx   flac  0.5206  11 Lazy River Road.flac
    15:40.133     180505656 B   cxx   --   ---xx   flac  0.5104  12 Estimated Prophet.flac
     7:44.896      89260100 B   cxx   --   ---xx   flac  0.5185  13 Dark Star.flac
    13:13.678     152386196 B   cxx   --   ---xx   flac  0.4069  14 Drums.flac
    10:23.991     119806376 B   cxx   --   ---xx   flac  0.4517  15 Space.flac
    10:52.019     125187688 B   cxx   --   ---xx   flac  0.4970  16 Wharf Rat.flac
     9:06.339     104897140 B   cxx   --   ---xx   flac  0.5161  17 Throwing Stones.flac
     4:43.289      54391504 B   cxx   --   ---xx   flac  0.5300  18 Turn On Your Lovelight.flac
     1:52.833      21663952 B   cxx   --   ---xx   flac  0.2277  19 Encore Break.flac
     3:43.445      42901436 B   cxx   --   ---xx   flac  0.5160  20 I Fought The Law.flac
   154:56.837    1784993504 B                            0.4909  (20 files)




More information about the bittorrent mailing list