[bittorrent] gd93-09-20.137336.sbd.miller.flac1648

Automated Mailer noreply-bt.e at etree.org
Thu Dec 8 00:51:00 UTC 2016


Band:           Grateful Dead
Torrent Name:   gd93-09-20.137336.sbd.miller.flac1648
Uploaded by:    greendude
DB Link:        
Details:        http://bt.etree.org/details.php?id=590193

Contact the seeder at http://db.etree.org/greendude

If the link to this show does not work, it was probably removed for
being non-trade-friendly.

Description / text file:
-------------------------
Grateful Dead - September 20, 1993
Madison Square Garden - New York, NY

Recording Info:
SBD > Dat Master (Panasonic SV-3700/48k)

Transfer Info:
Dat Master (Sony R500) > Sound Devices 744T > Samplitude Pro X3 Suite > FLAC/48k
(1 DVD FLAC)

All Transfers and Mastering By Charlie Miller
charliemiller87 at earthlink.net
December 5, 2016

Notes:
-- Space and GDTRFB with Edie Brickell

Set 1:
01 - Tuning
02 - Touch Of Grey >
03 - Greatest Story Ever Told
04 - Row Jimmy
05 - The Race Is On >
06 - Dire Wolf
07 - Stuck Inside Of Mobile With The Memphis Blues Again
08 - Lazy River Road
09 - Johnny B. Goode

Set 2:
10 - Tuning
11 - Samson And Delilah
12 - So Many Roads
13 - Truckin' >
14 - He's Gone >
15 - Drums >
16 - Space >
17 - The Other One >
18 - Goin' Down The Road Feeling Bad >
19 - Morning Dew

Encore:
20 - Encore Break
21 - Baba O'Riley >
22 - Tomorrow Never Knows


SHNTOOL OUTPUT:
    length     expanded size    cdr  WAVE problems  fmt   ratio  filename
     1:39.027      19013284 B   cxx   --   ---xx   flac  0.3217  01 Tuning.flac
     6:55.230      79724212 B   cxx   --   ---xx   flac  0.5388  02 Touch Of Grey.flac
     6:36.400      76108804 B   cxx   --   ---xx   flac  0.4464  03 Greatest Story Ever Told.flac
    12:44.818     146845160 B   cxx   --   ---xx   flac  0.5104  04 Row Jimmy.flac
     3:03.742      35278588 B   cxx   --   ---xx   flac  0.5469  05 The Race Is On.flac
     3:33.050      40905580 B   cxx   --   ---xx   flac  0.5235  06 Dire Wolf.flac
     7:57.634      91705848 B   cxx   --   ---xx   flac  0.5127  07 Stuck Inside Of Mobile With The Memphis Blues Again.flac
     6:55.053      79690144 B   cxx   --   ---xx   flac  0.5143  08 Lazy River Road.flac
     4:22.806      50458808 B   cxx   --   ---xx   flac  0.5230  09 Johnny B Goode.flac
     2:16.696      26245592 B   cxx   --   ---xx   flac  0.3136  10 Tuning.flac
     7:58.313      91836128 B   cxx   --   ---xx   flac  0.5151  11 Samson And Delilah.flac
     9:03.653     104381508 B   cxx   --   ---xx   flac  0.4924  12 So Many Roads.flac
     7:31.175      86625680 B   cxx   --   ---xx   flac  0.5252  13 Truckin'.flac
    11:56.189     137508244 B   cxx   --   ---xx   flac  0.4642  14 He's Gone.flac
    12:23.443     142741064 B   cxx   --   ---xx   flac  0.4242  15 Drums.flac
     9:43.148     111964372 B   cxx   --   ---xx   flac  0.3997  16 Space.flac
     7:08.136      82202128 B   cxx   --   ---xx   flac  0.4923  17 The Other One.flac
     7:49.946      90229664 B   cxx   --   ---xx   flac  0.5278  18 Goin' Down The Road Feeling Bad.flac
    10:48.052     124425960 B   cxx   --   ---xx   flac  0.4662  19 Morning Dew.flac
     3:01.875      34920076 B   cxx   --   ---xx   flac  0.2722  20 Encore Break.flac
     3:52.236      44589348 B   cxx   --   ---xx   flac  0.5012  21 Baba O'Riley.flac
     5:08.929      59314436 B   cxx   --   ---xx   flac  0.4851  22 Tomorrow Never Knows.flac
   152:29.550    1756714628 B                            0.4789  (22 files)




More information about the bittorrent mailing list