[bittorrent] gd93-06-16.137335.sbd.miller.flac1648

Automated Mailer noreply-bt.e at etree.org
Thu Dec 8 00:48:53 UTC 2016


Band:           Grateful Dead
Torrent Name:   gd93-06-16.137335.sbd.miller.flac1648
Uploaded by:    greendude
DB Link:        
Details:        http://bt.etree.org/details.php?id=590192

Contact the seeder at http://db.etree.org/greendude

If the link to this show does not work, it was probably removed for
being non-trade-friendly.

Description / text file:
-------------------------
Grateful Dead - June 16, 1993
Freedom Hall - Louisville, KY

Recording Info:
SBD > Dat Master (Panasonic SV-3700/48k)

Transfer Info:
Dat Master (Sony R500) > Sound Devices 744T > Samplitude Pro X3 Suite > FLAC/48k
(1 DVD FLAC)

All Transfers and Mastering By Charlie Miller
charliemiller87 at earthlink.net
December 5, 2016

Set 1:
01 - Tuning
02 - Cold Rain And Snow
03 - The Same Thing
04 - Peggy-O
05 - Just Like Tom Thumb's Blues
06 - Ramble On Rose
07 - Eternity
08 - Brown Eyed Women
09 - Easy Answers
10 - Don't Ease Me In

Set 2:
11 - Foolish Heart
12 - Saint Of Circumstance >
13 - Lazy River Road
14 - Corinna >
15 - Drums >
16 - Space >
17 - I Need A Miracle >
18 - Stella Blue >
19 - Good Lovin'

Encore:
20 - Encore Break
21 - I Fought The Law


SHNTOOL OUTPUT:
    length     expanded size    cdr  WAVE problems  fmt   ratio  filename
     2:10.828      25119080 B   cxx   --   ---xx   flac  0.3425  01 Tuning.flac
     5:59.819      69085336 B   cxx   --   ---xx   flac  0.5186  02 Cold Rain And Snow.flac
     7:03.767      81363292 B   cxx   --   ---xx   flac  0.4917  03 The Same Thing.flac
     6:45.903      77933328 B   cxx   --   ---xx   flac  0.4996  04 Peggy-O.flac
     6:45.475      77851324 B   cxx   --   ---xx   flac  0.4822  05 Just Like Tom Thumb's Blues.flac
     8:16.832      95391844 B   cxx   --   ---xx   flac  0.4793  06 Ramble On Rose.flac
    10:02.056     115594764 B   cxx   --   ---xx   flac  0.5120  07 Eternity.flac
     6:39.218      76649968 B   cxx   --   ---xx   flac  0.5018  08 Brown Eyed Women.flac
     7:05.087      81616788 B   cxx   --   ---xx   flac  0.5215  09 Easy Answers.flac
     3:10.362      36549580 B   cxx   --   ---xx   flac  0.5167  10 Don't Ease Me In.flac
    13:24.186     154403672 B   cxx   --   ---xx   flac  0.5199  11 Foolish Heart.flac
     7:00.283      80694364 B   cxx   --   ---xx   flac  0.5436  12 Saint Of Circumstance.flac
     6:58.855      80420132 B   cxx   --   ---xx   flac  0.5221  13 Lazy River Road.flac
    11:04.349     127554964 B   cxx   --   ---xx   flac  0.5188  14 Corrina.flac
    13:03.750     150480116 B   cxx   --   ---xx   flac  0.4313  15 Drums.flac
    12:54.201     148646584 B   cxx   --   ---xx   flac  0.4622  16 Space.flac
     4:45.383      54793636 B   cxx   --   ---xx   flac  0.5247  17 I Need A Miracle.flac
     8:34.806      98842876 B   cxx   --   ---xx   flac  0.4811  18 Stella Blue.flac
     6:26.578      74223068 B   cxx   --   ---xx   flac  0.5159  19 Good Lovin'.flac
     2:04.055      23818552 B   cxx   --   ---xx   flac  0.2408  20 Encore Break.flac
     2:36.095      29970208 B   cxx   --   ---xx   flac  0.5633  21 I Fought The Law.flac
   152:51.888    1761003476 B                            0.4934  (21 files)




More information about the bittorrent mailing list