[bittorrent] gd93-06-15.137334.sbd.miller.flac1648

Automated Mailer noreply-bt.e at etree.org
Thu Dec 8 00:46:09 UTC 2016


Band:           Grateful Dead
Torrent Name:   gd93-06-15.137334.sbd.miller.flac1648
Uploaded by:    greendude
DB Link:        
Details:        http://bt.etree.org/details.php?id=590191

Contact the seeder at http://db.etree.org/greendude

If the link to this show does not work, it was probably removed for
being non-trade-friendly.

Description / text file:
-------------------------
Grateful Dead - June 15, 1993
Freedom Hall - Louisville, KY

Recording Info:
SBD > Dat Master (Panasonic SV-3700/48k)

Transfer Info:
Dat Master (Sony R500) > Sound Devices 744T > Samplitude Pro X3 Suite > FLAC/48k
(1 DVD FLAC)

All Transfers and Mastering By Charlie Miller
charliemiller87 at earthlink.net
December 5, 2016

Set 1:
01 - Tuning
02 - Feel Like A Stranger
03 - Althea
04 - Wang Dang Doodle
05 - Friend Of The Devil
06 - Desolation Row
07 - Don't Ease Me In

Set 2:
08 - Tuning
09 - Victim Or The Crime >
10 - Crazy Fingers >
11 - Estimated Prophet >
12 - Spoonful >
13 - He's Gone >
14 - Drums >
15 - Space >
16 - The Last Time >
17 - Morning Dew

Encore:
18 - Encore Break
19 - Gloria


SHNTOOL OUTPUT:
    length     expanded size    cdr  WAVE problems  fmt   ratio  filename
     2:50.794      32792412 B   cxx   --   ---xx   flac  0.3607  01 Tuning.flac
    10:18.842     118817804 B   cxx   --   ---xx   flac  0.5220  02 Feel Like A Stranger.flac
     9:05.544     104744492 B   cxx   --   ---xx   flac  0.4803  03 Althea.flac
     7:20.964      84665104 B   cxx   --   ---xx   flac  0.4727  04 Wang Dang Doodle.flac
     9:34.699     110342328 B   cxx   --   ---xx   flac  0.4834  05 Friend Of The Devil.flac
    11:07.387     128138316 B   cxx   --   ---xx   flac  0.4927  06 Desolation Row.flac
     3:13.376      37128160 B   cxx   --   ---xx   flac  0.5363  07 Don't Ease Me In.flac
     2:30.359      28868900 B   cxx   --   ---xx   flac  0.3094  08 Tuning.flac
     8:20.412      96079224 B   cxx   --   ---xx   flac  0.5075  09 Victim Or The Crime.flac
     9:00.114     103702012 B   cxx   --   ---xx   flac  0.4664  10 Crazy Fingers.flac
    12:27.990     143614056 B   cxx   --   ---xx   flac  0.4732  11 Estimated Prophet.flac
     4:24.241      50734288 B   cxx   --   ---xx   flac  0.4531  12 Spoonful.flac
     9:08.650     105340892 B   cxx   --   ---xx   flac  0.4582  13 He's Gone.flac
    12:56.389     149066688 B   cxx   --   ---xx   flac  0.4221  14 Drums.flac
     9:35.440     110484488 B   cxx   --   ---xx   flac  0.4044  15 Space.flac
     6:20.423      73041268 B   cxx   --   ---xx   flac  0.5090  16 The Last Time.flac
    11:57.322     137725892 B   cxx   --   ---xx   flac  0.4545  17 Morning Dew.flac
     2:28.798      28569248 B   cxx   --   ---xx   flac  0.3161  18 Encore Break.flac
     5:14.157      60318124 B   cxx   --   ---xx   flac  0.5240  19 Gloria.flac
   147:55.900    1704173696 B                            0.4658  (19 files)




More information about the bittorrent mailing list