[bittorrent] gd1983-10-22.137333.senn421.miller.flac16

Automated Mailer noreply-bt.e at etree.org
Wed Dec 7 22:34:08 UTC 2016


Band:           Grateful Dead
Torrent Name:   gd1983-10-22.137333.senn421.miller.flac16
Uploaded by:    greendude
DB Link:        
Details:        http://bt.etree.org/details.php?id=590188

Contact the seeder at http://db.etree.org/greendude

If the link to this show does not work, it was probably removed for
being non-trade-friendly.

Description / text file:
-------------------------
Grateful Dead - October 22, 1983
Carrier Dome - Syracuse, NY

Recording Info:
(FOB) Sennheiser 421 > Sony TC-D5M > Cassette Master (Sony WM-D6 Patched)

Transfer Info:
Cassette Master (Nakamichi DR-1) > Tascam DA-3000 (DSF 1-bit/5.8 MHz) >
KORG AudioGate 4 > Adobe Audition CC 2015 > Samplitude Pro X3 Suite > FLAC/24
(1 Disc FLAC)

All Transfers and Mastering By Charlie Miller
charliemiller87 at earthlink.net
November 29, 2016

Patch Info:
(FOB) Senn 421 > Cassette Master > Dat > CD (shnid=10547) supplies:
Drums (7:47 - end of track)
Space (0:00 - 3:02)

Notes:
-- Thanks to Joe B. Jones for his help with the pitch correction

**This fileset is 16bit @ 44.1**
  24bit > 16bit with r8brain

Set 1:
01 - Tuning
02 - Shakedown Street
03 - Wang Dang Doodle
04 - Candyman
05 - New Minglewood Blues
06 - Bird Song
07 - Hell In A Bucket >
08 - Keep you Day Job

Set 2:
09 - China Cat Sunflower >
10 - I Know You Rider
11 - Man Smart (Woman Smarter)
12 - Terrapin Station >
13 - Drums >
14 - Space >
15 - The Wheel >
16 - Throwing Stones >
17 - Not Fade Away >
18 - One More Saturday Night

Encore:
19 - Revolution


SHNTOOL OUTPUT:
    length     expanded size    cdr  WAVE problems  fmt   ratio  filename
     0:52.27        9236348 B   ---   --   ---xx   flac  0.5554  01 Tuning.flac
    13:29.27      142771148 B   ---   --   ---xx   flac  0.6791  02 Shakedown Street.flac
     5:55.72       62791388 B   ---   --   ---xx   flac  0.6694  03 Wang Dang Doodle.flac
     6:01.46       63788636 B   ---   --   ---xx   flac  0.6735  04 Candyman.flac
     8:18.14       87880172 B   ---   --   ---xx   flac  0.6885  05 New Minglewood Blues.flac
    10:45.65      113930924 B   ---   --   ---xx   flac  0.6593  06 Bird Song.flac
     5:47.00       61210844 B   ---   --   ---xx   flac  0.6966  07 Hell In A Bucket.flac
     5:23.19       57021932 B   ---   --   ---xx   flac  0.6961  08 Keep Your Day Job.flac
     5:55.37       62709068 B   ---   --   ---xx   flac  0.6788  09 China Cat Sunflower.flac
     6:17.02       66507548 B   ---   --   ---xx   flac  0.6971  10 I Know You Rider.flac
     6:39.26       70444796 B   ---   --   ---xx   flac  0.6902  11 Man Smart (Woman Smarter).flac
    15:08.72      160340588 B   ---   --   ---xx   flac  0.6682  12 Terrapin Station.flac
     8:24.10       88929164 B   ---   --   ---xx   flac  0.6600  13 Drums.flac
    16:09.51      171051596 B   ---   --   ---xx   flac  0.5962  14 Space.flac
     7:01.62       74410268 B   ---   --   ---xx   flac  0.6500  15 The Wheel.flac
     8:06.37       85817468 B   ---   --   ---xx   flac  0.6694  16 Throwing Stones.flac
     7:15.68       76893980 B   ---   --   ---xx   flac  0.6625  17 Not Fade Away.flac
     5:12.04       55046252 B   ---   --   ---xx   flac  0.6663  18 One More Saturday Night.flac
     4:48.38       50892620 B   ---   --   ---xx   flac  0.6965  19 Revolution.flac
   147:33.02     1561674740 B                            0.6655  (19 files)





More information about the bittorrent mailing list