[bittorrent] gd1983-10-21.137332.senn421.miller.flac16

Automated Mailer noreply-bt.e at etree.org
Wed Dec 7 22:30:19 UTC 2016


Band:           Grateful Dead
Torrent Name:   gd1983-10-21.137332.senn421.miller.flac16
Uploaded by:    greendude
DB Link:        
Details:        http://bt.etree.org/details.php?id=590187

Contact the seeder at http://db.etree.org/greendude

If the link to this show does not work, it was probably removed for
being non-trade-friendly.

Description / text file:
-------------------------
Grateful Dead - October 21, 1983
The Centrum - Worcester, MA

Recording Info:
(FOB) Sennheiser 421 > Sony TC-D5M > Cassette Master (Sony WM-D6 Patched)

Transfer Info:
Cassette Master (Nakamichi DR-1) > Tascam DA-3000 (DSF 1-bit/5.8 MHz) >
KORG AudioGate 4 > Adobe Audition CC 2015 > Samplitude Pro X3 Suite > FLAC/24
(1 Disc FLAC)

All Transfers and Mastering By Charlie Miller
charliemiller87 at earthlink.net
November 29, 2016

Patch Info:
(FOB) Senn 441 > PCM > Dat (shnid=348) supplies:
Playing In The Band (8:30 - 8:45)
Drums (8:27 - end of track)
Space (0:00 - 0:30)
I Need A Miracle (0:11 - 0:51)

Notes:
-- Thanks to Joe B. Jones for his help with the pitch correction

**This fileset is 16bit @ 44.1**
  24bit > 16bit with r8brain

Set 1:
01 - Music Never Stopped
02 - Loser
03 - C.C. Rider
04 - Cumberland Blues
05 - Cassidy
06 - Ramble On Rose
07 - My Brother Esau >
08 - Big Railroad Blues >
09 - Promised Land

Set 2:
10 - Scarlet Begonias >
11 - Fire On The Mountain
12 - Uncle John's Band >
13 - Playing In The Band >
14 - Drums >
15 - Space >
16 - Truckin' >
17 - Wharf Rat >
18 - I Need A Miracle >
19 - Touch Of Grey

Encore:
20 - Johnny B. Goode


SHNTOOL OUTPUT:
    length     expanded size    cdr  WAVE problems  fmt   ratio  filename
     9:03.088     312818750 B   cxx   --   ---xx   flac  0.7529  01 Music Never Stopped.flac
     7:05.594     245142158 B   cxx   --   ---xx   flac  0.7475  02 Loser.flac
     8:50.717     305693210 B   cxx   --   ---xx   flac  0.7430  03 CC Rider.flac
     7:36.290     262823282 B   cxx   --   ---xx   flac  0.7666  04 Cumberland Blues.flac
     5:57.551     205949552 B   cxx   --   ---xx   flac  0.7641  05 Cassidy.flac
     7:21.153     254104322 B   cxx   --   ---xx   flac  0.7645  06 Ramble On Rose.flac
     5:09.510     178277990 B   cxx   --   ---xx   flac  0.7627  07 My Brother Esau.flac
     7:38.177     263910122 B   cxx   --   ---xx   flac  0.7841  08 Big Railraod Blues.flac
     4:40.912     161805440 B   cxx   --   ---xx   flac  0.7897  09 Promised Land.flac
    13:06.378     452953670 B   cxx   --   ---xx   flac  0.7181  10 Scarlet Begonias.flac
    16:52.302     583086026 B   cxx   --   ---xx   flac  0.7163  11 Fire On The Mountain.flac
     8:25.092     290932832 B   cxx   --   ---xx   flac  0.7205  12 Uncle John's Band.flac
    11:47.246     407373554 B   cxx   --   ---xx   flac  0.7062  13 Playing In The Band.flac
     8:51.043     305880740 B   cxx   --   ---xx   flac  0.6744  14 Drums.flac
    15:14.242     526603346 B   cxx   --   ---xx   flac  0.6632  15 Space.flac
     7:57.739     275177606 B   cxx   --   ---xx   flac  0.7427  16 Truckin'.flac
     9:55.073     342762002 B   cxx   --   ---xx   flac  0.7124  17 Wharf Rat.flac
     3:37.107     125053814 B   cxx   --   ---xx   flac  0.7496  18 I Need A Miracle.flac
     6:19.432     218553056 B   cxx   --   ---xx   flac  0.7989  19 Touch Of Grey.flac
     3:59.218     137789588 B   cxx   --   ---xx   flac  0.8071  20 Johnny B Goode.flac
   169:27.865    5856691060 B                            0.7331  (20 files)




More information about the bittorrent mailing list