[bittorrent] Mudcat Darwin's Burgers And Blues Marietta, Georgia 12/6/2016 (Schoeps CCM4V'S FOB)

Automated Mailer noreply-bt.e at etree.org
Wed Dec 7 15:49:23 UTC 2016


Band:           Other
Torrent Name:   Mudcat Darwin's Burgers And Blues Marietta, Georgia 12/6/2016 (Schoeps CCM4V'S FOB)
Uploaded by:    zmanatl
DB Link:        
Details:        http://bt.etree.org/details.php?id=590182

Contact the seeder at http://db.etree.org/zmanatl

If the link to this show does not work, it was probably removed for
being non-trade-friendly.

Description / text file:
-------------------------
Mudcat
Darwin's Burgers And Blues
Marietta, Georgia
12/6/2016 

Source: Schoeps CCM4V's>Lunatec V2>Benchmark AD2K>
Sound Devices 722 (24/44)
FOB/DFC/KFC/ZFC/AARP 6' From Stage, 6 1/2' High
DSP: Sound Devices 722>Sound Forge 10.0>CD Wave>flac(16)
ID3 Tagged In Foobar 2000
Recorded By: Z-Man
Seeded By: Z-Man

Disc I 

01 Greeting
02 I Am The Light Of This World
03 ?
04 Guacamole
05 *Chicken Pie
06 *?
07 *Whiskey
08 *Long Tall Woman From Tennessee
09 *Careless Love

Disc II  

01 *Birth
02 Banter
03 *Shake Em' On Down
04 *?
05 *?
06 *?
07 Banter
08 *Hallelu ah I Belong To The Band
09 *?

* With Hobo On Harmonica

mudcat2016-12-06d01t01.flac:76744e4a782da7feef364796190f45ae
mudcat2016-12-06d01t02.flac:611cb11d08c4532a05103c875634c776
mudcat2016-12-06d01t03.flac:f250c017cde37d710db1168a91a29bec
mudcat2016-12-06d01t04.flac:1d4223ef8a70a364785ae402221f99a0
mudcat2016-12-06d01t05.flac:c29dc9dc979512ca886d7290357f080a
mudcat2016-12-06d01t06.flac:057cb6a843deb392f3dfc57efa6dda01
mudcat2016-12-06d01t07.flac:ee0ce7147ed6c1e1d0c57c092ef0d078
mudcat2016-12-06d01t08.flac:6618baf593fc3f60d99aae702543e78f
mudcat2016-12-06d01t09.flac:62ced3cda0f734873d5bc0ab96cbfe35
mudcat2016-12-06d02t01.flac:ba448fdd1908ff4c0c292928b263352e
mudcat2016-12-06d02t02.flac:4afdd9032aacbe1630f00a7580551f46
mudcat2016-12-06d02t03.flac:f3734477b30c82deb28feeb9b28985e3
mudcat2016-12-06d02t04.flac:873f33ab4d06eb386580282eeafe5a69
mudcat2016-12-06d02t05.flac:59d221a0850ebb106625c02f3effd731
mudcat2016-12-06d02t06.flac:99eba75d7fd7e2fe77a84c63cbe82c90
mudcat2016-12-06d02t07.flac:f85ba6f0eb9ef6dde05ca0df69fc66de
mudcat2016-12-06d02t08.flac:fbe1d54bbdb4a039d7c521d397a85383
mudcat2016-12-06d02t09.flac:2b57f9e3b1c6a42265da933c8b36f211

 length     expanded size    cdr  WAVE problems  fmt   ratio  filename
     0:37.09        6548012 B   ---   --   ---xx   flac  0.2342  mudcat2016-12-06d01t01.flac
     2:10.31       23004956 B   ---   --   ---xx   flac  0.3589  mudcat2016-12-06d01t02.flac
     4:52.22       51560588 B   ---   --   ---xx   flac  0.4123  mudcat2016-12-06d01t03.flac
     4:43.34       50001212 B   ---   --   ---xx   flac  0.3959  mudcat2016-12-06d01t04.flac
     8:36.45       91128284 B   ---   --   ---xx   flac  0.3890  mudcat2016-12-06d01t05.flac
     4:58.15       52602524 B   ---   --   ---xx   flac  0.3792  mudcat2016-12-06d01t06.flac
     7:49.23       82785740 B   ---   --   ---xx   flac  0.3502  mudcat2016-12-06d01t07.flac
     5:36.52       59392748 B   ---   --   ---xx   flac  0.3890  mudcat2016-12-06d01t08.flac
     6:46.24       71674892 B   ---   --   ---xx   flac  0.3569  mudcat2016-12-06d01t09.flac
     6:06.53       64687100 B   ---   --   ---xx   flac  0.3619  mudcat2016-12-06d02t01.flac
     3:16.33       34652060 B   ---   --   ---xx   flac  0.3205  mudcat2016-12-06d02t02.flac
     4:37.53       48987500 B   ---   --   ---xx   flac  0.4222  mudcat2016-12-06d02t03.flac
     7:23.58       78281660 B   ---   --   ---xx   flac  0.3560  mudcat2016-12-06d02t04.flac
     6:37.43       70131980 B   ---   --   ---xx   flac  0.3866  mudcat2016-12-06d02t05.flac
     9:39.02      102140348 B   ---   --   ---xx   flac  0.4130  mudcat2016-12-06d02t06.flac
     1:58.49       20930492 B   ---   --   ---xx   flac  0.3536  mudcat2016-12-06d02t07.flac
     2:29.45       26389484 B   ---   --   ---xx   flac  0.3911  mudcat2016-12-06d02t08.flac
     6:39.44       70487132 B   ---   --   ---xx   flac  0.3813  mudcat2016-12-06d02t09.flac
    94:59.35     1005386712 B                            0.3788  (18 files)






More information about the bittorrent mailing list