[bittorrent] Swamp Drivers Band 2016-07-31.Skaneateles, NY.sbd.happyjack.Flac16 [New To Circulation]

Automated Mailer noreply-bt.e at etree.org
Tue Dec 6 04:54:33 UTC 2016


Band:           Other
Torrent Name:   Swamp Drivers Band 2016-07-31.Skaneateles,NY.sbd.happyjack.Flac16  [New To Circulation]
Uploaded by:    dedhed69
DB Link:        
Details:        http://bt.etree.org/details.php?id=590171

Contact the seeder at http://db.etree.org/dedhed69

If the link to this show does not work, it was probably removed for
being non-trade-friendly.

Description / text file:
-------------------------

NEW TO CIRCULATATION 

SWAMP DRIVERS BAND
Rhythm & Blues Festival
Sherwood Inn West Lawn
Skaneateles, N.Y.
July 31, 2016
Sunday around 2:15 pm

A Gratefully Little Deadicated Feat Recording [2016, show #14]  
     ***16 BIT VERSION*** 1st TIME IN CIRCULATION

Band #2
attendance 1,500+ place is getting packed

Recorded, Mastering, Editing & Photos 
by Happy Jack [aka: dedhed69]

Source:  Soundboard 
Lineage: Mixing board - rca plugs L/R Line out) >  Sony PCM-M10 (Line In) 
Settings: Sony PCM-M10 manual record level just under 6
Recording Mode: LPCM [wav] 96.00kHz/24bit

Transfer: Sony PCM-M10 [ SanDisk Ultra [MicroSDHC] 8gb (class10)] > my Laptob HD [by way of USB] > 96.00kHz/24bit.WAV file 

Mastering: 96.00kHz/24bit.WAV file > Adobe Audition 3 [I went thru each track seaperatly to get the right +/- db gains levels for the instruments. there was  really no bass at any level reading & other instruments like the snare drum were at a high level reading. NO MUSIC was altered or touch.]

Converting Sample Rate: Adobe Audition 3.0 was also used to to convert 96.00kHz/24bit.WAV to sample rate to 44.10kHz/16bit with High Qulaity at 100%, Pre Post Filter checked, Dither enabled, Dither Depth at 1, P.D.F set to Triangular and No Noise Shaping. 

CD Wave Editor To Split Tracks & converted to Flac [Level 6]
TLH to fix SBE

Setlist
01. Soundcheck & Tuning >
02. Intro >
03. Warm Up Swamp Jam
04. Man In Black
05. Rock Me Baby
06. Susie Q ^
07. Swamp
08. Find My Baby Boogie > Terry & John guitar duo > bass solo 
09. Blues Train > Blues Train Ride Jam 
10. Pride & Joy *
11. Live To Ride
12. Diddley Hoe

Show Notes
^ - Creedance Clearwater Revival cover 
* - Stevie Ray Vaughn cover
An Incredible Band & a Fantastic Show. Awesome Song writing.
You will see this Band in the Future !!!!!!!!!

Band Members
Terry (Mojo) Johnson - Swamp Instruments, Sax & vocals
Tom (Badass) Guidera - Swamp Bass Instruments & vocals 
Phil ( Wild Thang ) Diehl - Garage Cans drums & vocals
John ( Mr. Blues ) Gillespe - Swamp Slide, Harmonicas & vocals

Source Notes
This was the1st time recording this great unique band as 
far as the type of equipment & getting a 1st time great recording.
This is from my master & the one Terry & John has. That we discussed it
could use more bass & it sounded flat. Well audience recordings can give you that warm feeling. 
I have a couple aud shows & will get to them. Meanwhile I think you wil
realy like this one with the little work I did. This Band Is HOT

THIS IS ONE OF THE BEST NEWEST ROCK & ROLL BANDS WITH A UNIQUENESS OF EQUIPMENT
& SOUND THAT WILL SHAKE YOUR BONES DANCIN' A MUST SEE LIVE !!!!!!


SUPPORT THE ARTIST
http://www.theswampdrivers.com/home-1.html
By there Music. Go see them LIVE !!!

Happy Jack Final Notes
*** This is the only known source in Circilation !!!! 
Thanks to the Swamp Drivers for there support
added md5
added ffp
added shn tool.len text
Photos included
I WILL BE DOING MORE REORDING'S OF THE SWAMP DRIVERS +PUTTING MORE UP

DO NOT SELL !!!!

ENJOY/SHARE WITH FAMILY & FRIENDS [That you trust & just loves the music]

Happy Jack
Please beware of us old school tapers who may have lost the tolerance for being disrespected! After so many years how many end up asking for a show!!!
Please Be Kind

md5
ce24562456ee2dccbf7e04d7dade1412 *Swamp Drivers 2016-07-31 Track01. Soundcheck  Tuning -fixed.flac
fc4ffd0068256a6a323fbf1fdce5d452 *Swamp Drivers 2016-07-31 Track02. Intro -fixed.flac
003aa738b538d77f55a513d544bfe853 *Swamp Drivers 2016-07-31 Track03. Warm Up Swamp Jam-fixed.flac
970648f28b5eacb47afdba04ae6c6749 *Swamp Drivers 2016-07-31 Track04. Man In Black-fixed.flac
90346fcaddf90f54946b0c633fdef374 *Swamp Drivers 2016-07-31 Track05. Rock Me Baby-fixed.flac
9bf8d5fc664ac66cc8898c9829eff54d *Swamp Drivers 2016-07-31 Track06. Susie Q -fixed.flac
dd1882811925021239e3438151a4548a *Swamp Drivers 2016-07-31 Track07. Swamp-fixed.flac
87ac3e9ba1a7f71073867e3e4104bc51 *Swamp Drivers 2016-07-31 Track08. Find My Baby Boogie Terry John guitar duo bass solo -fixed.flac
b137a0b7b38ddffed0076b111ccaf5eb *Swamp Drivers 2016-07-31 Track09. Blues Train  Blues Train Ride Jam -fixed.flac
a24e2f83cc4a2c6a48068fd3033c77e7 *Swamp Drivers 2016-07-31 Track10. Pride & Joy-fixed.flac
04d7d55ab9c55a5e5762bba7d98ec3b4 *Swamp Drivers 2016-07-31 Track11. Live To Ride-fixed.flac
571c63b47e5f696cb0db7c6e93a33cae *Swamp Drivers 2016-07-31 Track12. Diddley Hoe-fixed.flac

    length     expanded size    cdr  WAVE problems  fmt   ratio  filename
     3:06.12       32838668 B   ---   --   ---xx   flac  0.2963  Swamp Drivers 2016-07-31 Track01. Soundcheck  Tuning -fixed.flac
     1:09.40       12265724 B   ---   --   ---xx   flac  0.2682  Swamp Drivers 2016-07-31 Track02. Intro -fixed.flac
     4:39.06       49229756 B   ---   --   ---xx   flac  0.4058  Swamp Drivers 2016-07-31 Track03. Warm Up Swamp Jam-fixed.flac
     5:44.01       60683996 B   ---   --   ---xx   flac  0.4016  Swamp Drivers 2016-07-31 Track04. Man In Black-fixed.flac
     6:03.23       64087340 B   ---   --   ---xx   flac  0.3909  Swamp Drivers 2016-07-31 Track05. Rock Me Baby-fixed.flac
     4:47.46       50735036 B   ---   --   ---xx   flac  0.3906  Swamp Drivers 2016-07-31 Track06. Susie Q -fixed.flac
     4:43.42       50020028 B   ---   --   ---xx   flac  0.4165  Swamp Drivers 2016-07-31 Track07. Swamp-fixed.flac
     6:41.10       70759964 B   ---   --   ---xx   flac  0.3959  Swamp Drivers 2016-07-31 Track08. Find My Baby Boogie Terry John guitar duo bass solo -fixed.flac
     8:16.66       87649676 B   ---   --   ---xx   flac  0.4109  Swamp Drivers 2016-07-31 Track09. Blues Train  Blues Train Ride Jam -fixed.flac
     4:59.44       52847132 B   ---   --   ---xx   flac  0.4088  Swamp Drivers 2016-07-31 Track10. Pride & Joy-fixed.flac
     5:16.67       55900028 B   ---   --   ---xx   flac  0.3592  Swamp Drivers 2016-07-31 Track11. Live To Ride-fixed.flac
     6:40.06       70574156 B   ---   --   ---xx   flac  0.3824  Swamp Drivers 2016-07-31 Track12. Diddley Hoe-fixed.flac
    62:07.63      657591504 B                            0.3889  (12 files)





More information about the bittorrent mailing list