[bittorrent] Swamp Drivers Band 2016-07-31.Skaneateles, NY.sbd.happyjack.Flac24 [New To Circulation]

Automated Mailer noreply-bt.e at etree.org
Tue Dec 6 04:46:51 UTC 2016


Band:           Other
Torrent Name:   Swamp Drivers Band 2016-07-31.Skaneateles,NY.sbd.happyjack.Flac24  [New To Circulation]
Uploaded by:    dedhed69
DB Link:        
Details:        http://bt.etree.org/details.php?id=590170

Contact the seeder at http://db.etree.org/dedhed69

If the link to this show does not work, it was probably removed for
being non-trade-friendly.

Description / text file:
-------------------------

NEW TO CIRCULATATION 

SWAMP DRIVERS BAND
Rhythm & Blues Festival
Sherwood Inn West Lawn
Skaneateles, N.Y.
July 31, 2016
Sunday around 2:15 pm

A Gratefully Little Deadicated Feat Recording [2016, show #14]  
     ***24 BIT VERSION*** 1st TIME IN CIRCULATION

Band #2
attendance 1,500+ place is getting packed

Recorded, Mastering, Editing & Photos 
by Happy Jack [aka: dedhed69]

Source:  Soundboard 
Lineage: Mixing board - rca plugs L/R Line out) >  Sony PCM-M10 (Line In) 
Settings: Sony PCM-M10 manual record level just under 6
Recording Mode: LPCM [wav] 96.00kHz/24bit

Transfer: Sony PCM-M10 [ SanDisk Ultra [MicroSDHC] 8gb (class10)] > my Laptob HD [by way of USB] > 96.00kHz/24bit.WAV file 

Mastering: 96.00kHz/24bit.WAV file > Adobe Audition 3 [I went thru each track seaperatly to get the right +/- db gains levels for the instruments. there was  really no bass at any level reading & other instruments like the snare drum were at a high level reading. NO MUSIC was altered or touch.]

CDWave Editor used to split tracks then convert to Flac24  [Level 6]

Setlist
01. Soundcheck & Tuning >
02. Intro >
03. Warm Up Swamp Jam
04. Man In Black
05. Rock Me Baby
06. Susie Q ^
07. Swamp
08. Find My Baby Boogie > Terry & John guitar duo > bass solo 
09. Blues Train > Blues Train Ride Jam 
10. Pride & Joy *
11. Live To Ride
12. Diddley Hoe

Show Notes
^ - Creedance Clearwater Revival cover 
* - Stevie Ray Vaughn cover
An Incredible Band & a Fantastic Show. Awesome Song writing.
You will see this Band in the Future !!!!!!!!!

Band Members
Terry (Mojo) Johnson - Swamp Instruments, Sax & vocals
Tom (Badass) Guidera - Swamp Bass Instruments & vocals 
Phil ( Wild Thang ) Diehl - Garage Cans drums & vocals
John ( Mr. Blues ) Gillespe - Swamp Slide, Harmonicas & vocals

Source Notes
This was the1st time recording this great unique band as 
far as the type of equipment & getting a 1st time great recording.
This is from my master & the one Terry & John has. That we discussed it
could use more bass & it sounded flat. Well audience recordings can give you that warm feeling. 
I have a couple aud shows & will get to them. Meanwhile I think you will
realy like this one with the little work I did. This Band Is HOT

THIS IS ONE OF THE BEST NEWEST ROCK & ROLL BANDS WITH A UNIQUENESS OF EQUIPMENT
& SOUND THAT WILL SHAKE YOUR BONES DANCIN' A MUST SEE LIVE !!!!!!

SUPPORT THE ARTIST
http://www.theswampdrivers.com/home-1.html
By there Music. Go see them LIVE !!!

Happy Jack Final Notes
*** This is the only known source in Circilation !!!! 
Thanks to the Swamp Drivers for there support
added md5
added ffp
added shn tool.len text
Photos included
I WILL BE DOING MORE REORDING'S OF THE SWAMP DRIVERS + PUTTING MORE UP

DO NOT SELL !!!!

ENJOY/SHARE WITH FAMILY & FRIENDS [That you trust & just loves the music]

Happy Jack
Please beware of us old school tapers who may have lost the tolerance for being disrespected! After so many years how many end up asking for a show!!!
Please Be Kind

MD5
baa118c69f1f57d3dc3fcd80586e0fe1 *Swamp Drivers 2016-07-31 Track01. Soundcheck  Tuning .flac
43024100ea4c4eaf999d7699e6efc558 *Swamp Drivers 2016-07-31 Track02. Intro .flac
1a775a220fa515174717ea4ee5037bb3 *Swamp Drivers 2016-07-31 Track03. Warm Up Swamp Jam.flac
88338e2107ab70eacecd0afc4fa25e51 *Swamp Drivers 2016-07-31 Track04. Man In Black.flac
16a66601e09055afc5710b2564fee357 *Swamp Drivers 2016-07-31 Track05. Rock Me Baby.flac
92d7b76910af8b134e6bda7e3aecd21a *Swamp Drivers 2016-07-31 Track06. Susie Q .flac
cbf9b5aacb572661819406e99d500cfc *Swamp Drivers 2016-07-31 Track07. Swamp.flac
e3386a50c83da002662c038c892532e2 *Swamp Drivers 2016-07-31 Track08. Find My Baby Boogie Terry John guitar duo bass solo .flac
8589bbff35073625900c59aac670c957 *Swamp Drivers 2016-07-31 Track09. Blues Train  Blues Train Ride Jam .flac
7dd487e25c7b5af06f90f7df8fb6e22e *Swamp Drivers 2016-07-31 Track10. Pride & Joy.flac
d89abb05fe7c6b0f20b3746b3643df2c *Swamp Drivers 2016-07-31 Track11. Live To Ride.flac
3f75514f6c24e536f481c09106f7699b *Swamp Drivers 2016-07-31 Track12. Diddley Hoe.flac
ce16e5473e0c7738f9bd4577a01eeede *Swamp Drivers Band 2016-07-31.Skaneateles,NY.sbd.happyjack.Flac24.shntool_len.txt

    length     expanded size    cdr  WAVE problems  fmt   ratio  filename
     3:06.160     107228204 B   cxx   --   ---xx   flac  0.4912  Swamp Drivers 2016-07-31 Track01. Soundcheck  Tuning .flac
     1:09.533      40051244 B   cxx   --   ---xx   flac  0.4897  Swamp Drivers 2016-07-31 Track02. Intro .flac
     4:39.080     160750124 B   cxx   --   ---xx   flac  0.5595  Swamp Drivers 2016-07-31 Track03. Warm Up Swamp Jam.flac
     5:44.013     198151724 B   cxx   --   ---xx   flac  0.5496  Swamp Drivers 2016-07-31 Track04. Man In Black.flac
     6:03.307     209264684 B   cxx   --   ---xx   flac  0.5451  Swamp Drivers 2016-07-31 Track05. Rock Me Baby.flac
     4:47.613     165665324 B   cxx   --   ---xx   flac  0.5502  Swamp Drivers 2016-07-31 Track06. Susie Q .flac
     4:43.560     163330604 B   cxx   --   ---xx   flac  0.5625  Swamp Drivers 2016-07-31 Track07. Swamp.flac
     6:41.133     231052844 B   cxx   --   ---xx   flac  0.5540  Swamp Drivers 2016-07-31 Track08. Find My Baby Boogie Terry John guitar duo bass solo .flac
     8:16.880     286202924 B   cxx   --   ---xx   flac  0.5622  Swamp Drivers 2016-07-31 Track09. Blues Train  Blues Train Ride Jam .flac
     4:59.587     172561964 B   cxx   --   ---xx   flac  0.5583  Swamp Drivers 2016-07-31 Track10. Pride & Joy.flac
     5:16.893     182530604 B   cxx   --   ---xx   flac  0.5410  Swamp Drivers 2016-07-31 Track11. Live To Ride.flac
     6:40.071     230441174 B   cxx   --   ---xx   flac  0.5518  Swamp Drivers 2016-07-31 Track12. Diddley Hoe.flac
    62:07.831    2147231418 B                            0.5492  (12 files)




More information about the bittorrent mailing list