[bittorrent] Colin Alvarez Band Darwin's Burgers And Blues Marietta, Georgia 12/5/2016 (Schoeps CCM4V'S FOB)

Automated Mailer noreply-bt.e at etree.org
Tue Dec 6 04:21:00 UTC 2016


Band:           Other
Torrent Name:   Colin Alvarez Band Darwin's Burgers And Blues Marietta, Georgia 12/5/2016 (Schoeps CCM4V'S FOB)
Uploaded by:    zmanatl
DB Link:        
Details:        http://bt.etree.org/details.php?id=590167

Contact the seeder at http://db.etree.org/zmanatl

If the link to this show does not work, it was probably removed for
being non-trade-friendly.

Description / text file:
-------------------------
Colin Alvarez Band
Darwin's Burgers And Blues
Marietta, Georgia
12/5/2016 

Source: Schoeps CCM4V's>Lunatec V2>Benchmark AD2K>
Sound Devices 722 (24/44)
FOB/DFC/KFC/ZFC/AARP Stage Lip, 6 1/2' High
DSP: Sound Devices 722>Sound Forge 10.0>CD Wave>flac(16)
ID3 Tagged In Foobar 2000
Recorded By: Z-Man
Seeded By: Z-Man

Disc I 1st Set

01 Messin' With The Kid 
02 Hoochie Coochie Man
03 Cold Shot
04 Georgia Before Daybreak
05 Big Legged Woman
06 Band Introductions
07 Tin Pan Alley
2nd Set:
08 Red
09 Red House
10 Cause We'vd Ended As Lovers
11 Little Wing

Colin Alvarez - Guitar And Vocals
Darryl Lee - Bass And Vocals
Charlie Korch - Drums 

colin2016-12-05d01t01.flac:6b85c6c9f029ee207c34c8465114edc5
colin2016-12-05d01t02.flac:c8be6aca588bf2e9203070cc40887ed9
colin2016-12-05d01t03.flac:a247786daa68c06fddc43c042902ee0a
colin2016-12-05d01t04.flac:e7c3e9caa2684277e45facf8c24fc6cf
colin2016-12-05d01t05.flac:af811b48a8eb514dab652a6644a70129
colin2016-12-05d01t06.flac:9e38cf5264a95d5167f30d3c9886e0c1
colin2016-12-05d01t07.flac:3955b7e775d5ffcd4c1adea3aa2f8bc7
colin2016-12-05d01t08.flac:e576a36b93d714f89ccd4aa78bd6e256
colin2016-12-05d01t09.flac:7cbfd4787da973abc05a36210c6f7fd0
colin2016-12-05d01t10.flac:dd965166c1ba0be4ee7aa3966555a28c
colin2016-12-05d01t11.flac:5b440e732e25cd78694cececf08caa87

length     expanded size    cdr  WAVE problems  fmt   ratio  filename
     4:31.14       47837372 B   ---   --   ---xx   flac  0.4878  colin2016-12-05d01t01.flac
     5:42.46       60437036 B   ---   --   ---xx   flac  0.4227  colin2016-12-05d01t02.flac
     5:38.13       59653820 B   ---   --   ---xx   flac  0.3836  colin2016-12-05d01t03.flac
     5:02.69       53435132 B   ---   --   ---xx   flac  0.4267  colin2016-12-05d01t04.flac
     4:24.69       46731932 B   ---   --   ---xx   flac  0.4867  colin2016-12-05d01t05.flac
     1:18.61       13902716 B   ---   --   ---xx   flac  0.2581  colin2016-12-05d01t06.flac
    10:27.22      110654588 B   ---   --   ---xx   flac  0.3701  colin2016-12-05d01t07.flac
     7:34.13       80116220 B   ---   --   ---xx   flac  0.4867  colin2016-12-05d01t08.flac
     9:50.59      104214812 B   ---   --   ---xx   flac  0.4126  colin2016-12-05d01t09.flac
     5:08.11       54357116 B   ---   --   ---xx   flac  0.4085  colin2016-12-05d01t10.flac
     7:04.48       74906540 B   ---   --   ---xx   flac  0.4344  colin2016-12-05d01t11.flac
    66:43.50      706247284 B                            0.4228  (11 files)
















More information about the bittorrent mailing list