[bittorrent] gd1983-10-20.137331.senn421.miller.flac16

Automated Mailer noreply-bt.e at etree.org
Tue Dec 6 01:29:55 UTC 2016


Band:           Grateful Dead
Torrent Name:   gd1983-10-20.137331.senn421.miller.flac16
Uploaded by:    greendude
DB Link:        
Details:        http://bt.etree.org/details.php?id=590162

Contact the seeder at http://db.etree.org/greendude

If the link to this show does not work, it was probably removed for
being non-trade-friendly.

Description / text file:
-------------------------
Grateful Dead - October 20, 1983
The Centrum - Worcester, MA

Recording Info:
(FOB) Sennheiser 421 > Sony TC-D5M > Cassette Master (Sony WM-D6 Patched)

Transfer Info:
Cassette Master (Nakamichi DR-1) > Tascam DA-3000 (DSF 1-bit/5.8 MHz) >
KORG AudioGate 4 > Adobe Audition CC 2015 > Samplitude Pro X3 Suite > FLAC/24
(1 Disc FLAC)

All Transfers and Mastering By Charlie Miller
charliemiller87 at earthlink.net
November 28, 2016

Notes:
-- This was all that was available, I chose not to patch it
-- Thanks to Joe B. Jones for his help with the pitch correction

**This fileset is 16bits @ 44.1**
  24bits > 16bits with r8brain

Set 1:
01 - Bertha ->
02 - Greatest Story Ever Told
03 - West L.A. Fadeaway
04 - New Minglewood Blues
05 - Tennessee Jed
06 - Hell In A Bucket
07 - Row Jimmy
08 - Looks Like Rain ->
09 - Deal

Set 2:
10 - Good Lovin'

Encore:
11 - Keep Your Day Job


SHNTOOL OUTPUT:
    length     expanded size    cdr  WAVE problems  fmt   ratio  filename
     6:19.09       66876812 B   ---   --   ---xx   flac  0.6768  01 Bertha.flac
     3:53.28       41167100 B   ---   --   ---xx   flac  0.6930  02 Greatest Story Ever Told.flac
     7:51.53       83209100 B   ---   --   ---xx   flac  0.6811  03 West LA Fadeaway.flac
     9:14.21       97775036 B   ---   --   ---xx   flac  0.6777  04 New Minglewood Blues.flac
     8:27.25       89493644 B   ---   --   ---xx   flac  0.6759  05 Tennessee Jed.flac
     6:08.08       64934060 B   ---   --   ---xx   flac  0.7008  06 Hell In A Bucket.flac
     9:18.72       98600588 B   ---   --   ---xx   flac  0.6834  07 Row Jimmy.flac
     8:35.37       90933068 B   ---   --   ---xx   flac  0.6686  08 Looks Like Rain.flac
     9:05.54       96265052 B   ---   --   ---xx   flac  0.6996  09 Deal.flac
     8:50.25       93550844 B   ---   --   ---xx   flac  0.7208  10 Good Lovin'.flac
     4:42.31       49817756 B   ---   --   ---xx   flac  0.7217  11 Keep Your Day Job.flac
    82:26.63      872623060 B                            0.6895  (11 files)




More information about the bittorrent mailing list