[bittorrent] gd1983-10-18.137330.senn421.miller.flac16

Automated Mailer noreply-bt.e at etree.org
Tue Dec 6 01:26:54 UTC 2016


Band:           Grateful Dead
Torrent Name:   gd1983-10-18.137330.senn421.miller.flac16
Uploaded by:    greendude
DB Link:        
Details:        http://bt.etree.org/details.php?id=590161

Contact the seeder at http://db.etree.org/greendude

If the link to this show does not work, it was probably removed for
being non-trade-friendly.

Description / text file:
-------------------------
Grateful Dead - October 18, 1983
Cumberland County Civic Center - Portland, ME

Recording Info:
(FOB) Sennheiser 421 > Sony TC-D5M > Cassette Master (Sony WM-D6 Patched)

Transfer Info:
Cassette Master (Nakamichi DR-1) > Tascam DA-3000 (DSF 1-bit/5.8 MHz) >
KORG AudioGate 4 > Adobe Audition CC 2015 > Samplitude Pro X3 Suite > FLAC/24
(1 Disc FLAC)

All Transfers and Mastering By Charlie Miller
charliemiller87 at earthlink.net
November 28, 2016

Notes:
-- Thanks to Joe B. Jones for his help with the pitch correction

**This fileset is 16bits @ 44.1**
  24bits > 16bits with r8brain

Set 1:
01 - Jack Straw
02 - They Love Each Other
03 - Me And My Uncle >
04 - Mexicali Blues
05 - Dupree's Diamond Blues
06 - C.C. Rider
07 - Althea
08 - Lazy Lightning >
09 - Supplication
10 - Might As Well

Set 2:
11 - China Cat Sunflower >
12 - I Know You Rider
13 - Estimated Prophet >
14 - He's Gone >
15 - Drums >
16 - Space >
17 - Not Fade Away >
18 - Black Peter >
19 - Around And Around >
20 - Sugar Magnolia

Encore:
21 - U.S. Blues


SHNTOOL OUTPUT:
    length     expanded size    cdr  WAVE problems  fmt   ratio  filename
     6:34.03       69508700 B   ---   --   ---xx   flac  0.6772  01 Jack Straw.flac
     8:49.03       93322700 B   ---   --   ---xx   flac  0.6640  02 They Love Each Other.flac
     2:59.18       31617980 B   ---   --   ---xx   flac  0.7064  03 Me And My Uncle.flac
     5:41.25       60211244 B   ---   --   ---xx   flac  0.7057  04 Mexicali Blues.flac
     6:06.00       64562444 B   ---   --   ---xx   flac  0.6856  05 Dupree's Diamond Blues.flac
     9:18.70       98595884 B   ---   --   ---xx   flac  0.6777  06 CC Rider.flac
     9:49.50      104017244 B   ---   --   ---xx   flac  0.6609  07 Althea.flac
     3:48.72       40388588 B   ---   --   ---xx   flac  0.6960  08 Lazy Lightning.flac
     8:07.35       85989164 B   ---   --   ---xx   flac  0.6996  09 Supplication.flac
     4:28.17       47315228 B   ---   --   ---xx   flac  0.7245  10 Might As Well.flac
     7:56.43       84067580 B   ---   --   ---xx   flac  0.6598  11 China Cat Sunflower.flac
     6:13.02       65801948 B   ---   --   ---xx   flac  0.6807  12 I Know You Rider.flac
    11:56.35      126384764 B   ---   --   ---xx   flac  0.6930  13 Estimated Prophet.flac
     9:28.67      100352828 B   ---   --   ---xx   flac  0.6570  14 He's Gone.flac
    10:42.14      113281772 B   ---   --   ---xx   flac  0.6374  15 Drums.flac
     9:10.59       97158812 B   ---   --   ---xx   flac  0.5541  16 Space.flac
     9:39.16      102173276 B   ---   --   ---xx   flac  0.6530  17 Not Fade Away.flac
     8:26.04       89267852 B   ---   --   ---xx   flac  0.6452  18 Black Peter.flac
     3:43.28       39403100 B   ---   --   ---xx   flac  0.6799  19 Around And Around.flac
    10:39.33      112797260 B   ---   --   ---xx   flac  0.7021  20 Sugar Magnolia.flac
     5:24.00       57153644 B   ---   --   ---xx   flac  0.7055  21 US Blues.flac
   159:02.69     1683372012 B                            0.6693  (21 files)





More information about the bittorrent mailing list