[bittorrent] gd1983-10-17.137328.senn421.miller.flac16

Automated Mailer noreply-bt.e at etree.org
Tue Dec 6 01:24:24 UTC 2016


Band:           Grateful Dead
Torrent Name:   gd1983-10-17.137328.senn421.miller.flac16
Uploaded by:    greendude
DB Link:        
Details:        http://bt.etree.org/details.php?id=590160

Contact the seeder at http://db.etree.org/greendude

If the link to this show does not work, it was probably removed for
being non-trade-friendly.

Description / text file:
-------------------------
Grateful Dead - October 17, 1983
Olympic Arena - Lake Placid, NY

Recording Info:
(FOB) Sennheiser 421 > Sony TC-D5M > Cassette Master (Sony WM-D6 Patched)

Transfer Info:
Cassette Master (Nakamichi DR-1) > Tascam DA-3000 (DSF 1-bit/5.8 MHz) >
KORG AudioGate 4 > Adobe Audition CC 2015 > Samplitude Pro X3 Suite > FLAC/24
(1 Disc FLAC)

All Transfers and Mastering By Charlie Miller
charliemiller87 at earthlink.net
November 26, 2016

Notes:
-- Thanks to Joe B. Jones for his help with the pitch correction

**This fileset is 16bits @ 44.1**
  24bits > 16bits with r8brain

Set 1:
01 - Sugaree >
02 - Little Red Rooster
03 - Friend Of The Devil
04 - My Brother Esau
05 - Bird Song
06 - Hell In A Bucket >
07 - Deal

Set 2:
08 - Touch Of Grey
09 - Samson And Delilah
10 - To Lay Me Down >
11 - Man Smart (Woman Smarter)
12 - Terrapin Station >
13 - Drums >
14 - Space >
15 - The Wheel >
16 - I Need A Miracle >
17 - Goin' Down The Road Feeling Bad >
18 - Good Lovin'

Encore:
19 - Revolution


SHNTOOL OUTPUT:
    length     expanded size    cdr  WAVE problems  fmt   ratio  filename
    16:27.08      174125660 B   ---   --   ---xx   flac  0.6894  01 Sugaree.flac
     9:00.10       95279564 B   ---   --   ---xx   flac  0.6688  02 Little Red Rooster.flac
     9:21.07       98976908 B   ---   --   ---xx   flac  0.6765  03 Friend Of The Devil.flac
     5:27.52       57805148 B   ---   --   ---xx   flac  0.6908  04 My Brother Esau.flac
    12:54.10      136557164 B   ---   --   ---xx   flac  0.6731  05 Bird Song.flac
     6:19.54       66982652 B   ---   --   ---xx   flac  0.7073  06 Hell In A Bucket.flac
    10:38.21      112592636 B   ---   --   ---xx   flac  0.6945  07 Deal.flac
     6:37.71       70197836 B   ---   --   ---xx   flac  0.6878  08 Touch Of Grey.flac
     9:15.19       97946732 B   ---   --   ---xx   flac  0.6883  09 Samson And Delilah.flac
     8:58.22       94954988 B   ---   --   ---xx   flac  0.6652  10 To Lay Me Down.flac
     7:35.04       80271452 B   ---   --   ---xx   flac  0.6849  11 Man Smart (Woman Smarter).flac
    12:34.67      133163228 B   ---   --   ---xx   flac  0.6582  12 Terrapin Station.flac
     5:03.54       53576252 B   ---   --   ---xx   flac  0.6522  13 Drums.flac
    11:07.09      117680012 B   ---   --   ---xx   flac  0.5868  14 Space.flac
     6:58.08       73754060 B   ---   --   ---xx   flac  0.6555  15 The Wheel.flac
     4:36.33       48764060 B   ---   --   ---xx   flac  0.6864  16 I Need A Miracle.flac
     7:15.05       76745804 B   ---   --   ---xx   flac  0.6763  17 Goin' Down The Road Feeling Bad.flac
     8:05.40       85648124 B   ---   --   ---xx   flac  0.6783  18 Good Lovin'.flac
     5:09.52       54629948 B   ---   --   ---xx   flac  0.7009  19 Revolution.flac
   163:25.21     1729652228 B                            0.6728  (19 files)





More information about the bittorrent mailing list