[bittorrent] gd1983-10-15.137327.senn421.miller.flac16

Automated Mailer noreply-bt.e at etree.org
Tue Dec 6 01:20:17 UTC 2016


Band:           Grateful Dead
Torrent Name:   gd1983-10-15.137327.senn421.miller.flac16
Uploaded by:    greendude
DB Link:        
Details:        http://bt.etree.org/details.php?id=590159

Contact the seeder at http://db.etree.org/greendude

If the link to this show does not work, it was probably removed for
being non-trade-friendly.

Description / text file:
-------------------------
Grateful Dead - October 15, 1983
Civic Center - Hartford, CT

Recording Info:
(FOB) Sennheiser 421 > Sony TC-D5M > Cassette Master (Sony WM-D6 Patched)

Transfer Info:
Cassette Master (Nakamichi DR-1) > Tascam DA-3000 (DSF 1-bit/5.8 MHz) >
KORG AudioGate 4 > Adobe Audition CC 2015 > Samplitude Pro X3 Suite > FLAC/24
(1 Disc FLAC)

All Transfers and Mastering By Charlie Miller
charliemiller87 at earthlink.net
November 26, 2016

Notes:
-- Thanks to Joe B. Jones for his help with the pitch correction

**This fileset is 16bits @ 44.1**
  24bits > 16bits with r8brain

Set 1:
01 - Feel Like A Stranger
02 - Dire Wolf
03 - New Minglewood Blues
04 - Brown Eyed Women
05 - Wang Dang Doodle
06 - Big Railroad Blues
07 - Let It Grow >
08 - Keep Your Day Job

Set 2:
09 - China Cat Sunflower >
10 - I Know You Rider
11 - Playing In The Band >
12 - China Doll >
13 - Drums >
14 - Space >
15 - Saint Stephen >
16 - Throwing Stones >
17 - One More Saturday Night

Encore:
18 - Brokedown Palace


SHNTOOL OUTPUT:
    length     expanded size    cdr  WAVE problems  fmt   ratio  filename
     9:09.08       96862460 B   ---   --   ---xx   flac  0.6652  01 Feel Like A Stranger.flac
     3:29.23       36921740 B   ---   --   ---xx   flac  0.6680  02 Dire Wolf.flac
     8:03.49       85316492 B   ---   --   ---xx   flac  0.6662  03 New Minglewood Blues.flac
     5:57.50       63092444 B   ---   --   ---xx   flac  0.6617  04 Brown Eyed Women.flac
     6:12.33       65698460 B   ---   --   ---xx   flac  0.6661  05 Wang Dang Doodle.flac
     8:45.71       92777036 B   ---   --   ---xx   flac  0.6685  06 Big Railroad Blues.flac
    11:19.73      119947340 B   ---   --   ---xx   flac  0.6800  07 Let It Grow.flac
     5:20.13       56478620 B   ---   --   ---xx   flac  0.7080  08 Day Job.flac
     7:47.54       82505852 B   ---   --   ---xx   flac  0.6603  09 China Cat Sunflower.flac
     6:27.52       68389148 B   ---   --   ---xx   flac  0.6547  10 I Know You Rider.flac
    16:26.59      174069212 B   ---   --   ---xx   flac  0.6297  11 Playing In The Band.flac
     7:16.65       77063324 B   ---   --   ---xx   flac  0.6331  12 China Doll.flac
     6:51.73       72672140 B   ---   --   ---xx   flac  0.6095  13 Drums.flac
     9:27.15      100054124 B   ---   --   ---xx   flac  0.5535  14 Space.flac
     7:49.48       82844540 B   ---   --   ---xx   flac  0.6823  15 Saint Stephen.flac
     9:11.00       97196444 B   ---   --   ---xx   flac  0.6624  16 Throwing Stones.flac
     4:46.70       50615084 B   ---   --   ---xx   flac  0.7032  17 One More Saturday Night.flac
     6:44.57       71399708 B   ---   --   ---xx   flac  0.6751  18 Brokedown Palace.flac
   141:08.63     1493904168 B                            0.6540  (18 files)





More information about the bittorrent mailing list