[bittorrent] gd1983-10-14.137326.senn421.miller.flac16

Automated Mailer noreply-bt.e at etree.org
Tue Dec 6 01:16:53 UTC 2016


Band:           Grateful Dead
Torrent Name:   gd1983-10-14.137326.senn421.miller.flac16
Uploaded by:    greendude
DB Link:        
Details:        http://bt.etree.org/details.php?id=590158

Contact the seeder at http://db.etree.org/greendude

If the link to this show does not work, it was probably removed for
being non-trade-friendly.

Description / text file:
-------------------------
Grateful Dead - October 14, 1983
Civic Center - Hartford, CT

Recording Info:
(FOB) Sennheiser 421 > Sony TC-D5M > Cassette Master (Sony WM-D6 Patched)

Transfer Info:
Cassette Master (Nakamichi DR-1) > Tascam DA-3000 (DSF 1-bit/5.8 MHz) >
KORG AudioGate 4 > Adobe Audition CC 2015 > Samplitude Pro X3 Suite > FLAC/24
(1 Disc FLAC)

All Transfers and Mastering By Charlie Miller
charliemiller87 at earthlink.net
November 26, 2016

Notes:
-- Sound quality changes at the tape flip
-- This was all that was available, I chose not to patch it
-- Thanks to Joe B. Jones for his help with the pitch correction

**This fileset is 16bits @ 44.1**
  24bits > 16bits with r8brain

Set 2:
01 - Scarlet Begonias >
02 - Fire On The Mountain
03 - Estimated Prophet >
04 - Eyes Of The World >
05 - Drums >
06 - Space >
07 - Spanish Jam >
08 - The Other One


SHNTOOL OUTPUT:
    length     expanded size    cdr  WAVE problems  fmt   ratio  filename
    15:15.05      161417804 B   ---   --   ---xx   flac  0.6049  01 Scarlet Begonias.flac
    17:19.74      183453692 B   ---   --   ---xx   flac  0.6141  02 Fire On The Mountain.flac
    13:14.53      140186300 B   ---   --   ---xx   flac  0.6195  03 Estimated Prophet.flac
    17:55.49      189745292 B   ---   --   ---xx   flac  0.6754  04 Eyes Of The World.flac
     6:08.14       64948172 B   ---   --   ---xx   flac  0.6392  05 Drums.flac
     4:25.58       46882460 B   ---   --   ---xx   flac  0.5818  06 Space.flac
     4:52.06       51522956 B   ---   --   ---xx   flac  0.5813  07 Spanish Jam.flac
    10:17.37      108925868 B   ---   --   ---xx   flac  0.6510  08 The Other One.flac
    89:28.71      947082544 B                            0.6282  (8 files)



More information about the bittorrent mailing list