[bittorrent] Bryan Jr. Solo Acoustic Keegan's Public House Kennesaw, Georgia 12/4/2016 (Schoeps CCM4V'S FOB)

Automated Mailer noreply-bt.e at etree.org
Mon Dec 5 05:20:17 UTC 2016


Band:           Other
Torrent Name:   Bryan Jr. Solo Acoustic Keegan's Public House Kennesaw, Georgia 12/4/2016 (Schoeps CCM4V'S FOB)
Uploaded by:    zmanatl
DB Link:        
Details:        http://bt.etree.org/details.php?id=590146

Contact the seeder at http://db.etree.org/zmanatl

If the link to this show does not work, it was probably removed for
being non-trade-friendly.

Description / text file:
-------------------------
Bryan Jr. Solo Acoustic
Keegan's Public House
Kennesaw, Georgia
12/4/2016 

Source: Schoeps CCM4V's>Lunatec V2>Benchmark AD2K>
Sound Devices 722 (24/44)
FOB/DFC/KFC/ZFC/AARP 9' From Stge, 6 1/2' High
DSP: Sound Devices 722>Sound Forge 10.0>CD Wave>flac(16)
ID3 Tagged In Foobar 2000
Recorded By: Z-Man
Seeded By: Z-Man

Disc I 

01 Introduction By Chip Jones 
02 The B-Natural
03 TusoJos
04 ?
05 ?
06 Just Enough

bryan2016-12-04d01t01.flac:fd931119d7d84e80e834e0b0485a5259
bryan2016-12-04d01t02.flac:4951c3a21359817ad0e45b0b1a70d5ae
bryan2016-12-04d01t03.flac:f179325d77bc76a30fbe7ea3d4977aae
bryan2016-12-04d01t04.flac:44c10425fbeea2580181b1acbe44b0f7
bryan2016-12-04d01t05.flac:c98376836a755d7e08926832d5eac782
bryan2016-12-04d01t06.flac:394bb25a6d820c095f96ae01f2f0cf55

length     expanded size    cdr  WAVE problems  fmt   ratio  filename
     0:14.10        2493164 B   ---   --   ---xx   flac  0.3845  bryan2016-12-04d01t01.flac
     5:05.47       53912588 B   ---   --   ---xx   flac  0.5236  bryan2016-12-04d01t02.flac
     5:25.52       57452348 B   ---   --   ---xx   flac  0.4571  bryan2016-12-04d01t03.flac
     6:33.39       69416972 B   ---   --   ---xx   flac  0.4561  bryan2016-12-04d01t04.flac
     4:44.00       50097644 B   ---   --   ---xx   flac  0.5026  bryan2016-12-04d01t05.flac
     6:35.35       69760364 B   ---   --   ---xx   flac  0.4586  bryan2016-12-04d01t06.flac
    28:38.33      303133080 B                            0.4760  (6 files)










More information about the bittorrent mailing list