[bittorrent] Lexi Street Solo Acoustic Keegan's Public House Kennesaw, Georgia 12/4/2016 (Schoeps CCM4V'S FOB)

Automated Mailer noreply-bt.e at etree.org
Mon Dec 5 05:14:04 UTC 2016


Band:           Other
Torrent Name:   Lexi Street Solo Acoustic Keegan's Public House Kennesaw, Georgia 12/4/2016 (Schoeps CCM4V'S FOB)
Uploaded by:    zmanatl
DB Link:        
Details:        http://bt.etree.org/details.php?id=590145

Contact the seeder at http://db.etree.org/zmanatl

If the link to this show does not work, it was probably removed for
being non-trade-friendly.

Description / text file:
-------------------------
Lexi Street Solo Acoustic
Keegan's Public House
Kennesaw, Georgia
12/4/2016 

Source: Schoeps CCM4V's>Lunatec V2>Benchmark AD2K>
Sound Devices 722 (24/44)
FOB/DFC/KFC/ZFC/AARP 9' From Stge, 6 1/2' High
DSP: Sound Devices 722>Sound Forge 10.0>CD Wave>flac(16)
ID3 Tagged In Foobar 2000
Recorded By: Z-Man
Seeded By: Z-Man

Disc I 

01 Introduction By Chip Jones 
02 The Room
03 Forgotten Favorite Song
04 Summer
05 Heal Thy Fear
06 Valerie
07 Girdling Root

lexi2016-12-04d01t01.flac:6e4af9b73ee83b810a0d71ca19cc78a5
lexi2016-12-04d01t02.flac:9ffb5f49bf5aa32ac96d23a212a40dc6
lexi2016-12-04d01t03.flac:77f2c1ce922b61ffddabd6f359cbbe7e
lexi2016-12-04d01t04.flac:17a374abeadb82efebcea11a353c12b5
lexi2016-12-04d01t05.flac:91a72de3d687ab301072a0163e273314
lexi2016-12-04d01t06.flac:99ba4e6de49d710f617506bb487920f9
lexi2016-12-04d01t07.flac:0ea29f7cf4dd838d9433a81443b476d5

length     expanded size    cdr  WAVE problems  fmt   ratio  filename
     0:50.62        8965868 B   ---   --   ---xx   flac  0.4339  lexi2016-12-04d01t01.flac
     4:57.01       52393196 B   ---   --   ---xx   flac  0.4778  lexi2016-12-04d01t02.flac
     4:55.01       52040396 B   ---   --   ---xx   flac  0.4714  lexi2016-12-04d01t03.flac
     3:51.33       40826060 B   ---   --   ---xx   flac  0.4637  lexi2016-12-04d01t04.flac
     5:07.42       54253628 B   ---   --   ---xx   flac  0.4717  lexi2016-12-04d01t05.flac
     4:20.35       45946364 B   ---   --   ---xx   flac  0.4722  lexi2016-12-04d01t06.flac
     4:07.64       43721372 B   ---   --   ---xx   flac  0.4939  lexi2016-12-04d01t07.flac
    28:10.13      298146884 B                            0.4738  (7 files)














More information about the bittorrent mailing list