[bittorrent] Chip Jones Solo Acoustic Keegan's Public House Kennesaw, Georgia 12/4/2016 (Schoeps CCM4V'S FOB)

Automated Mailer noreply-bt.e at etree.org
Mon Dec 5 04:41:56 UTC 2016


Band:           Other
Torrent Name:   Chip Jones Solo Acoustic Keegan's Public House Kennesaw, Georgia 12/4/2016 (Schoeps CCM4V'S FOB)
Uploaded by:    zmanatl
DB Link:        
Details:        http://bt.etree.org/details.php?id=590142

Contact the seeder at http://db.etree.org/zmanatl

If the link to this show does not work, it was probably removed for
being non-trade-friendly.

Description / text file:
-------------------------
Chip Jones Solo Acoustic
Keegan's Public House
Kennesaw, Georgia
12/4/2016 

Source: Schoeps CCM4V's>Lunatec V2>Benchmark AD2K>
Sound Devices 722 (24/44)
FOB/DFC/KFC/ZFC/AARP 9' From Stge, 6 1/2' High
DSP: Sound Devices 722>Sound Forge 10.0>CD Wave>flac(16)
ID3 Tagged In Foobar 2000
Recorded By: Z-Man
Seeded By: Z-Man

Disc I 

01 Black Orpheus
02 On The Ground
03 Straight Back To You
04 Genesis
05 Gator Alley

chip2016-12-04d01t01.flac:60c5b152d8bac23a7dfeea14d641ffd0
chip2016-12-04d01t02.flac:39938ebcb43c98f44abbefb160f4ca3e
chip2016-12-04d01t03.flac:a1cd77330619034732edd25bdbe12412
chip2016-12-04d01t04.flac:6ce661fc7415b8345e7668d3e0b1dd4d
chip2016-12-04d01t05.flac:3bd9391a9c3b2f7ff89fb173074fbc99

 length     expanded size    cdr  WAVE problems  fmt   ratio  filename
     4:43.23       49975340 B   ---   --   ---xx   flac  0.4633  chip2016-12-04d01t01.flac
     5:05.22       53853788 B   ---   --   ---xx   flac  0.4862  chip2016-12-04d01t02.flac
     3:41.30       39055004 B   ---   --   ---xx   flac  0.5262  chip2016-12-04d01t03.flac
     5:44.27       60745148 B   ---   --   ---xx   flac  0.4995  chip2016-12-04d01t04.flac
     4:30.69       47790332 B   ---   --   ---xx   flac  0.5453  chip2016-12-04d01t05.flac
    23:45.21      251419612 B                            0.5023  (5 files)




More information about the bittorrent mailing list