[bittorrent] gd1983-10-12.137323.senn421.miller.flac16

Automated Mailer noreply-bt.e at etree.org
Sun Dec 4 23:42:50 UTC 2016


Band:           Grateful Dead
Torrent Name:   gd1983-10-12.137323.senn421.miller.flac16
Uploaded by:    greendude
DB Link:        
Details:        http://bt.etree.org/details.php?id=590117

Contact the seeder at http://db.etree.org/greendude

If the link to this show does not work, it was probably removed for
being non-trade-friendly.

Description / text file:
-------------------------
Grateful Dead - October 12, 1983
Madison Square Garden - New York, NY

Recording Info:
(FOB) Sennheiser 421 > Sony TC-D5M > Cassette Master (Sony WM-D6 Patched)

Transfer Info:
Cassette Master (Nakamichi DR-1) > Tascam DA-3000 (DSF 1-bit/5.8 MHz) >
KORG AudioGate 4 > Adobe Audition CC 2015 > Samplitude Pro X3 Suite > FLAC/24
(1 Disc FLAC)

All Transfers and Mastering By Charlie Miller
charliemiller87 at earthlink.net
November 25, 2016

Notes:
-- Thanks to Joe B. Jones for his help with the pitch correction

**This fileset is 16bits @ 44.1**
  24bits > 16bits with r8brain

Set 1:
01 - Cold Rain And Snow
02 - New Minglewood Blues
03 - Ramble On Rose
04 - My Brother Esau
05 - It Must Have Been The Roses
06 - Cassidy >
07 - Cumberland Blues
08 - Looks Like Rain >
09 - Might As Well

Set 2:
10 - Help On The Way >
11 - Slipknot! >
12 - Franklin's Tower
13 - Man Smart (Woman Smarter)
14 - He's Gone >
15 - Drums >
16 - Space >
17 - Truckin' >
18 - Black Peter >
19 - Not Fade Away

Encore:
20 - Revolution


SHNTOOL OUTPUT:
    length     expanded size    cdr  WAVE problems  fmt   ratio  filename
     7:59.39       84587372 B   ---   --   ---xx   flac  0.6701  gd1983-10-12.01 Cold Rain And Snow.flac
     9:18.73       98602940 B   ---   --   ---xx   flac  0.6619  gd1983-10-12.02 New Minglewood Blues.flac
     6:56.27       73445948 B   ---   --   ---xx   flac  0.6606  gd1983-10-12.03 Ramble On Rose.flac
     5:18.53       56219900 B   ---   --   ---xx   flac  0.6619  gd1983-10-12.04 My Brother Esau.flac
     6:18.09       66700412 B   ---   --   ---xx   flac  0.6561  gd1983-10-12.05 It Must Have Been The Roses.flac
     6:09.26       65152796 B   ---   --   ---xx   flac  0.6806  gd1983-10-12.06 Cassidy.flac
     9:34.13      101284220 B   ---   --   ---xx   flac  0.6921  gd1983-10-12.07 Cumberland Blues.flac
     8:23.50       88846844 B   ---   --   ---xx   flac  0.6514  gd1983-10-12.08 Looks Like Rain.flac
     4:37.18       48905180 B   ---   --   ---xx   flac  0.6975  gd1983-10-12.09 Might As Well.flac
     3:48.62       40365068 B   ---   --   ---xx   flac  0.6723  gd1983-10-12.10 Help On The Way.flac
    10:01.20      106063484 B   ---   --   ---xx   flac  0.6704  gd1983-10-12.11 Slipknot!.flac
    14:15.67      150979628 B   ---   --   ---xx   flac  0.6764  gd1983-10-12.12 Franklin's Tower.flac
     6:44.61       71409116 B   ---   --   ---xx   flac  0.6749  gd1983-10-12.13 Man Smart (Woman Smarter).flac
    12:52.02      136185548 B   ---   --   ---xx   flac  0.6497  gd1983-10-12.14 He's Gone.flac
     9:04.49       96076892 B   ---   --   ---xx   flac  0.6239  gd1983-10-12.15 Drums.flac
    13:08.44      139106732 B   ---   --   ---xx   flac  0.5608  gd1983-10-12.16 Space.flac
     7:48.29       82623452 B   ---   --   ---xx   flac  0.6951  gd1983-10-12.17 Truckin'.flac
     9:10.67       97177628 B   ---   --   ---xx   flac  0.6522  gd1983-10-12.18 Black Peter.flac
     8:31.02       90145148 B   ---   --   ---xx   flac  0.6704  gd1983-10-12.19 Not Fade Away.flac
     5:19.46       56379836 B   ---   --   ---xx   flac  0.6869  gd1983-10-12.20 Revolution.flac
   165:22.07     1750258144 B                            0.6587  (20 files)





More information about the bittorrent mailing list