[bittorrent] gd1983-10-11.137322.senn421.miller.flac16

Automated Mailer noreply-bt.e at etree.org
Sun Dec 4 23:39:39 UTC 2016


Band:           Grateful Dead
Torrent Name:   gd1983-10-11.137322.senn421.miller.flac16
Uploaded by:    greendude
DB Link:        
Details:        http://bt.etree.org/details.php?id=590116

Contact the seeder at http://db.etree.org/greendude

If the link to this show does not work, it was probably removed for
being non-trade-friendly.

Description / text file:
-------------------------
Grateful Dead - October 11, 1983
Madison Square Garden - New York, NY

Recording Info:
(FOB) Sennheiser 421 > Sony TC-D5M > Cassette Master (Sony WM-D6 Patched)

Transfer Info:
Cassette Master (Nakamichi DR-1) > Tascam DA-3000 (DSF 1-bit/5.8 MHz) >
KORG AudioGate 4 > Adobe Audition CC 2015 > Samplitude Pro X3 Suite > FLAC/24
(1 Disc FLAC)

All Transfers and Mastering By Charlie Miller
charliemiller87 at earthlink.net
November 25, 2016

Patch Info:
Beyer M160 > Cassette Master (shnid=32644) supplies:
Drums (8:36 - end of track)
Space (0:00 - 0:19)

Notes:
-- Thanks to Joe B. Jones for his help with the pitch correction

**This fileset is 16bits @ 44.1**
  24bits > 16bits with r8brain

Set 1:
01 - Wang Dang Doodle >
02 - Jack Straw
03 - Loser
04 - Me And My Uncle >
05 - Mexicali Blues
06 - Bird Song
07 - Hell In A Bucket >
08 - Keep Your Day Job

Set 2:
09 - China Cat Sunflower >
10 - I Know You Rider
11 - I Need A Miracle >
12 - Bertha >
13 - Jam >
14 - China Doll >
15 - Drums >
16 - Space >
17 - Saint Stephen >
18 - Throwing Stones >
19 - Touch Of Grey

Encore:
20 - Johnny B. Goode


SHNTOOL OUTPUT:
    length     expanded size    cdr  WAVE problems  fmt   ratio  filename
     8:01.72       85017788 B   ---   --   ---xx   flac  0.6197  gd1983-10-11.01 Wang Dang Doodle.flac
     5:30.65       58364924 B   ---   --   ---xx   flac  0.6745  gd1983-10-11.02 Jack Straw.flac
     7:21.02       77797148 B   ---   --   ---xx   flac  0.6576  gd1983-10-11.03 Loser.flac
     3:17.06       34764956 B   ---   --   ---xx   flac  0.6915  gd1983-10-11.04 Me And My Uncle.flac
     4:32.34       48060812 B   ---   --   ---xx   flac  0.7062  gd1983-10-11.05 Mexicali Blues.flac
    11:39.73      123475340 B   ---   --   ---xx   flac  0.6681  gd1983-10-11.06 Bird Song.flac
     5:43.06       60519356 B   ---   --   ---xx   flac  0.7183  gd1983-10-11.07 Hell In A Bucket.flac
     4:41.32       49643708 B   ---   --   ---xx   flac  0.7390  gd1983-10-11.08 Keep Your Day Job.flac
     7:48.69       82717532 B   ---   --   ---xx   flac  0.6942  gd1983-10-11.09 China Cat Sunflower.flac
     7:11.44       76131932 B   ---   --   ---xx   flac  0.6711  gd1983-10-11.10 I Know You Rider.flac
     4:51.31       51405356 B   ---   --   ---xx   flac  0.6811  gd1983-10-11.11 I Need A Miracle.flac
     6:06.68       64722380 B   ---   --   ---xx   flac  0.6972  gd1983-10-11.12 Bertha.flac
     3:31.07       37236908 B   ---   --   ---xx   flac  0.6639  gd1983-10-11.13 Jam.flac
     8:19.23       88077740 B   ---   --   ---xx   flac  0.6682  gd1983-10-11.14 China Doll.flac
    12:05.48      128002940 B   ---   --   ---xx   flac  0.6243  gd1983-10-11.15 Drums.flac
    11:14.28      118959500 B   ---   --   ---xx   flac  0.5685  gd1983-10-11.16 Space.flac
     6:46.19       71663132 B   ---   --   ---xx   flac  0.6846  gd1983-10-11.17 Saint Stephen.flac
     9:26.50       99960044 B   ---   --   ---xx   flac  0.6635  gd1983-10-11.18 Throwing Stones.flac
     6:29.21       68669036 B   ---   --   ---xx   flac  0.6929  gd1983-10-11.19 Touch Of Grey.flac
     4:17.03       45341900 B   ---   --   ---xx   flac  0.6932  gd1983-10-11.20 Johnny B Goode.flac
   138:56.26     1470532432 B                            0.6651  (20 files)





More information about the bittorrent mailing list