[bittorrent] gd1983-10-09.137321.senn421.miller.flac16

Automated Mailer noreply-bt.e at etree.org
Sun Dec 4 23:34:19 UTC 2016


Band:           Grateful Dead
Torrent Name:   gd1983-10-09.137321.senn421.miller.flac16
Uploaded by:    greendude
DB Link:        
Details:        http://bt.etree.org/details.php?id=590115

Contact the seeder at http://db.etree.org/greendude

If the link to this show does not work, it was probably removed for
being non-trade-friendly.

Description / text file:
-------------------------
Grateful Dead - October 9, 1983
Greensboro Coliseum - Greensboro, NC

Recording Info:
(FOB) Sennheiser 421 > Sony TC-D5M > Cassette Master (Sony WM-D6 Patched)

Transfer Info:
Cassette Master (Nakamichi DR-1) > Tascam DA-3000 (DSF 1-bit/5.8 MHz) >
KORG AudioGate 4 > Adobe Audition CC 2015 > Samplitude Pro X3 Suite > FLAC/24
(1 Disc FLAC)

All Transfers and Mastering By Charlie Miller
charliemiller87 at earthlink.net
November 25, 2016

Notes:
-- Thanks to Joe B. Jones for his help with the pitch correction

**This fileset is 16bits @ 44.1**
  24bits > 16bits with r8brain

Set 1:
01 - Shakedown Street
02 - Samson And Delilah
03 - Peggy-O
04 - Little Red Rooster
05 - Candyman
06 - My Brother Esau
07 - Big Railroad Blues
08 - Let It Grow

Set 2:
09 - Touch Of Grey
10 - Estimated Prophet >
11 - Eyes Of The World >
12 - Man Smart (Woman Smarter) >
13 - Drums >
14 - Space >
15 - Not Fade Away >
16 - Sugar Magnolia

Encore:
17 - It's All Over Now, Baby Blue


SHNTOOL OUTPUT:
    length     expanded size    cdr  WAVE problems  fmt   ratio  filename
    12:11.56      129080156 B   ---   --   ---xx   flac  0.6512  gd1983-10-09.01 Shakedown Street.flac
     7:50.01       82910396 B   ---   --   ---xx   flac  0.6621  gd1983-10-09.02 Samson And Delilah.flac
     6:51.49       72615692 B   ---   --   ---xx   flac  0.6508  gd1983-10-09.03 Peggy-O.flac
     9:03.03       95792300 B   ---   --   ---xx   flac  0.6714  gd1983-10-09.04 Little Red Rooster.flac
     6:34.68       69661580 B   ---   --   ---xx   flac  0.6582  gd1983-10-09.05 Candyman.flac
     5:11.32       54935708 B   ---   --   ---xx   flac  0.6681  gd1983-10-09.06 My Brother Esau.flac
     8:00.31       84744956 B   ---   --   ---xx   flac  0.6702  gd1983-10-09.07 Big Railroad Blues.flac
    15:00.15      158795324 B   ---   --   ---xx   flac  0.6681  gd1983-10-09.08 Let It Grow.flac
     7:52.32       83336108 B   ---   --   ---xx   flac  0.6638  gd1983-10-09.09 Touch Of Grey.flac
    12:15.26      129715196 B   ---   --   ---xx   flac  0.6534  gd1983-10-09.10 Estimated Prophet.flac
     7:34.15       80120924 B   ---   --   ---xx   flac  0.6907  gd1983-10-09.11 Eyes Of The World.flac
     7:39.49       81082892 B   ---   --   ---xx   flac  0.6876  gd1983-10-09.12 Man Smart (Woman Smarter).flac
     7:58.11       84345116 B   ---   --   ---xx   flac  0.6119  gd1983-10-09.13 Drums.flac
    10:39.19      112764332 B   ---   --   ---xx   flac  0.5435  gd1983-10-09.14 Space.flac
     9:50.40      104170124 B   ---   --   ---xx   flac  0.6505  gd1983-10-09.15 Not Fade Away.flac
    10:17.09      108860012 B   ---   --   ---xx   flac  0.6692  gd1983-10-09.16 Sugar Magnolia.flac
     7:37.47       80725388 B   ---   --   ---xx   flac  0.6536  gd1983-10-09.17 It's All Over Now, Baby Blue.flac
   152:27.53     1613656204 B                            0.6528  (17 files)





More information about the bittorrent mailing list