[bittorrent] gd1983-10-08.137317.senn421.miller.flac16

Automated Mailer noreply-bt.e at etree.org
Sun Dec 4 23:24:33 UTC 2016


Band:           Grateful Dead
Torrent Name:   gd1983-10-08.137317.senn421.miller.flac16
Uploaded by:    greendude
DB Link:        
Details:        http://bt.etree.org/details.php?id=590114

Contact the seeder at http://db.etree.org/greendude

If the link to this show does not work, it was probably removed for
being non-trade-friendly.

Description / text file:
-------------------------
Grateful Dead - October 8, 1983
Richmond Coliseum - Richmond, VA

Recording Info:
(FOB) Sennheiser 421 > Sony TC-D5M > Cassette Master (Sony WM-D6 Patched)

Transfer Info:
Cassette Master (Nakamichi DR-1) > Tascam DA-3000 (DSF 1-bit/5.8 MHz) >
KORG AudioGate 4 > Adobe Audition CC 2015 > Samplitude Pro X3 Suite > FLAC/24
(1 Disc FLAC)

All Transfers and Mastering By Charlie Miller
charliemiller87 at earthlink.net
November 24, 2016

Patch Info:
(FOB) Sennheiser 441 > PCM (shnid=97883) supplies:
Drums (8:17 - 8:48)

Notes:
-- Thanks to Joe B. Jones for his help with the pitch correction

24 > 16 notes by Norm
24 bit files decoded to wav > r8brain @ very high > 16 44.1 output wav
16 44.1 wav > TLH encode flac level 8 & fix sbe > TLH for ffp, md5, show audio file details

Set 1:
01 - Feel Like A Stranger
02 - Friend Of The Devil
03 - New Minglewood Blues
04 - Brown Eyed Women
05 - Cassidy
06 - West L.A. Fadeaway
07 - Hell In A Bucket
08 - Deal

Set 2:
09 - Keep Your Day Job
10 - Playing In The Band >
11 - Crazy Fingers >
12 - Drums >
13 - Space >
14 - Truckin' >
15 - Spoonful >
16 - Wharf Rat >
17 - Sugar Magnolia Jam >
18 - Good Lovin'

Encore:
19 - U.S. Blues

    length     expanded size    cdr  WAVE problems  fmt   ratio  filename
     8:02.10       85048364 B   ---   --   ---xx   flac  0.7054  01 Feel Like A Stranger.flac
     8:25.34       89162012 B   ---   --   ---xx   flac  0.7053  02 Friend Of The Devil.flac
     8:18.55       87976604 B   ---   --   ---xx   flac  0.7265  03 New Minglewood Blues.flac
     5:19.60       56412764 B   ---   --   ---xx   flac  0.7100  04 Brown Eyed Women.flac
     5:11.48       54973340 B   ---   --   ---xx   flac  0.7305  05 Cassidy.flac
     9:28.74      100369292 B   ---   --   ---xx   flac  0.7008  06 West LA Fadeaway.flac
     5:53.42       62368028 B   ---   --   ---xx   flac  0.7240  07 Cassidy.flac
     8:13.30       87035804 B   ---   --   ---xx   flac  0.7242  08 Deal.flac
     6:01.35       63762764 B   ---   --   ---xx   flac  0.6983  09 Keep Your Day Job.flac
    12:25.28      131483900 B   ---   --   ---xx   flac  0.6658  10 Playing In The Band.flac
     9:31.27      100787948 B   ---   --   ---xx   flac  0.6470  11 Crazy Fingers.flac
     9:31.00      100724444 B   ---   --   ---xx   flac  0.5902  12 Drums.flac
     9:40.19      102356732 B   ---   --   ---xx   flac  0.5419  13 Space.flac
     6:35.24       69734492 B   ---   --   ---xx   flac  0.7313  14 Truckin'.flac
     3:04.42       32556428 B   ---   --   ---xx   flac  0.6464  15 Spoonful.flac
     9:14.49       97840892 B   ---   --   ---xx   flac  0.6387  16 Wharf Rat.flac
     1:04.21       11339036 B   ---   --   ---xx   flac  0.6173  17 Sugar Magnolia Jam.flac
     7:32.19       79777532 B   ---   --   ---xx   flac  0.7057  18 Good Lovin'.flac
     5:06.04       53987852 B   ---   --   ---xx   flac  0.7012  19 US Blues.flac
   138:40.21     1467698228 B                            0.6769  (19 files)





More information about the bittorrent mailing list