[bittorrent] Voodoo Visionary Terminal West Atlanta, Georgia 12/3/2016 (Schoeps CCM4V'S FOB)

Automated Mailer noreply-bt.e at etree.org
Sun Dec 4 17:14:23 UTC 2016


Band:           Other
Torrent Name:   Voodoo Visionary Terminal West Atlanta, Georgia 12/3/2016 (Schoeps CCM4V'S FOB)
Uploaded by:    zmanatl
DB Link:        
Details:        http://bt.etree.org/details.php?id=590109

Contact the seeder at http://db.etree.org/zmanatl

If the link to this show does not work, it was probably removed for
being non-trade-friendly.

Description / text file:
-------------------------
Voodoo Visionary
Terminal West
Atlanta, Georgia
12/3/2016 

Source: Schoeps CCM4V's>Lunatec V2>Benchmark AD2K>
Sound Devices 722 (24/44)
FOB/DFC/KFC/ZFC/AARP Clamped To The Rail Of The Balcony
DSP: Sound Devices 722>Sound Forge 10.0>CD Wave>flac(16)
ID3 Tagged In Foobar 2000
Recorded By: Z-Man
Seeded By: Z-Man

Disc I 

01 Hold Tight
02 Testify
03 Hero On The Horizon
04 Gunk
05 Harmony
06 Saving Face

voodoo2016-12-03d01t01.flac:c7a6afb604903b722756fa8fae86d90a
voodoo2016-12-03d01t02.flac:bd523e37bfda09e6cdb5d510b3e45be7
voodoo2016-12-03d01t03.flac:70f928e49559881810b1bac3ce7230c1
voodoo2016-12-03d01t04.flac:5726ba127624e3c18fc3f0972d0262e2
voodoo2016-12-03d01t05.flac:17ffa8dc1a762858fd722641384eb84a
voodoo2016-12-03d01t06.flac:a6836456d23fbe8ab9ee2a2296e2d2b2

 length     expanded size    cdr  WAVE problems  fmt   ratio  filename
     7:26.55       78803804 B   ---   --   ---xx   flac  0.5437  voodoo2016-12-03d01t01.flac
     9:06.17       96354428 B   ---   --   ---xx   flac  0.5664  voodoo2016-12-03d01t02.flac
     7:35.02       80266748 B   ---   --   ---xx   flac  0.5759  voodoo2016-12-03d01t03.flac
     5:29.46       58143836 B   ---   --   ---xx   flac  0.5025  voodoo2016-12-03d01t04.flac
     9:18.70       98595884 B   ---   --   ---xx   flac  0.5839  voodoo2016-12-03d01t05.flac
     9:59.13      105694220 B   ---   --   ---xx   flac  0.5521  voodoo2016-12-03d01t06.flac
    48:55.53      517858920 B                            0.5577  (6 files)






















More information about the bittorrent mailing list