[bittorrent] Karl Denson's Tiny Universe Featuring Jimmy Herring Terminal West Atlanta, Georgia 12/3/2016 (Schoeps CCM4V'S FOB)

Automated Mailer noreply-bt.e at etree.org
Sun Dec 4 08:05:55 UTC 2016


Band:           Karl Denson's Tiny Universe
Torrent Name:   Karl Denson's Tiny Universe Featuring Jimmy Herring  Terminal West Atlanta, Georgia 12/3/2016 (Schoeps CCM4V'S FOB)
Uploaded by:    zmanatl
DB Link:        
Details:        http://bt.etree.org/details.php?id=590106

Contact the seeder at http://db.etree.org/zmanatl

If the link to this show does not work, it was probably removed for
being non-trade-friendly.

Description / text file:
-------------------------
Karl Denson's Tiny Universe Featuring Jimmy Herring
Terminal West
Atlanta, Georgia
12/3/2016 

Source: Schoeps CCM4V's>Lunatec V2>Benchmark AD2K>
Sound Devices 722 (24/44)
FOB/DFC/KFC/ZFC/AARP Clamped To The Rail Of The Balcony
DSP: Sound Devices 722>Sound Forge 10.0>CD Wave>flac(16)
ID3 Tagged In Foobar 2000
Recorded By: Z-Man
Seeded By: Z-Man

Disc I 

01 Greeting By Karl Denson
02 Power Of Soul
03 My Baby Likes To Bugaloo
04 ?
05 *Chicken Lickin'
06 *Just Got Paid
07 *?
08 *Have You Seen Him
09 *When I Get There
10 *Some Skunk Funk

Disc II 

01 *Young Americans
02 *?
03 *?
04 *Monkstrap
05 *Satisfied
Encore:
06 Drum Solo >
07 New York City

* With Jimmy Herring

karl2016-12-03d01t01.flac:f68a1bd834cc73d02a388100ef80a1de
karl2016-12-03d01t02.flac:1770cdd226ffbddd098dd415ed537b5a
karl2016-12-03d01t03.flac:aaccc5f4999fb6e3703d1d44b9ca9de0
karl2016-12-03d01t04.flac:438dc6f3cc4d5d48ed65907ad7ece132
karl2016-12-03d01t05.flac:1d995dbb005cd6cfd3a388e3ab34c649
karl2016-12-03d01t06.flac:65af9f84a1a29c90214fa4a3221a0d84
karl2016-12-03d01t07.flac:67649a74cbbf09bae42d5d7726e4ac30
karl2016-12-03d01t08.flac:72dc99d6e5e9500a7c81772ffaaa71ec
karl2016-12-03d01t09.flac:80470fd581b2bee0c8481fcceef82778
karl2016-12-03d01t10.flac:986a5ac589bd7a11ec8f4ff18a81d123
karl2016-12-03d02t01.flac:8f2852b2e741e6e650458beae8089b08
karl2016-12-03d02t02.flac:8abc34ece2ab8a5d7e374e30d309f756
karl2016-12-03d02t03.flac:13d620460bcf6dc6ed006d7aeb5277dc
karl2016-12-03d02t04.flac:145c8cdfbe910933ace0325c4033f253
karl2016-12-03d02t05.flac:0a0cdfb10c4733bd3a6071c6bb8dd630
karl2016-12-03d02t06.flac:a10f401d1a47f33d13ec3869c517fdb7
karl2016-12-03d02t07.flac:3d6419e8544f088df162039c29f06657

 length     expanded size    cdr  WAVE problems  fmt   ratio  filename
     0:37.72        6696188 B   ---   --   ---xx   flac  0.4127  karl2016-12-03d01t01.flac
     6:20.58       67168460 B   ---   --   ---xx   flac  0.5859  karl2016-12-03d01t02.flac
     6:09.16       65129276 B   ---   --   ---xx   flac  0.5438  karl2016-12-03d01t03.flac
     7:35.06       80276156 B   ---   --   ---xx   flac  0.5539  karl2016-12-03d01t04.flac
     8:15.73       87489740 B   ---   --   ---xx   flac  0.5651  karl2016-12-03d01t05.flac
     5:44.54       60808652 B   ---   --   ---xx   flac  0.5805  karl2016-12-03d01t06.flac
    10:05.14      106754972 B   ---   --   ---xx   flac  0.5566  karl2016-12-03d01t07.flac
     7:26.30       78745004 B   ---   --   ---xx   flac  0.5759  karl2016-12-03d01t08.flac
    10:35.02      112018748 B   ---   --   ---xx   flac  0.5627  karl2016-12-03d01t09.flac
     7:06.53       75271100 B   ---   --   ---xx   flac  0.5694  karl2016-12-03d01t10.flac
     7:00.48       74200940 B   ---   --   ---xx   flac  0.5543  karl2016-12-03d02t01.flac
     8:51.00       93668444 B   ---   --   ---xx   flac  0.5776  karl2016-12-03d02t02.flac
    10:56.48      115831340 B   ---   --   ---xx   flac  0.5580  karl2016-12-03d02t03.flac
     9:33.60      101218364 B   ---   --   ---xx   flac  0.5372  karl2016-12-03d02t04.flac
    18:35.54      196813052 B   ---   --   ---xx   flac  0.5505  karl2016-12-03d02t05.flac
     1:25.24       15050492 B   ---   --   ---xx   flac  0.5096  karl2016-12-03d02t06.flac
     8:39.30       91622204 B   ---   --   ---xx   flac  0.5678  karl2016-12-03d02t07.flac
   134:59.42     1428763132 B                            0.5597  (17 files)




















More information about the bittorrent mailing list