[bittorrent] gd1987-07-12.137298.set3.aud.GEMS.flac16

Automated Mailer noreply-bt.e at etree.org
Sat Dec 3 21:57:52 UTC 2016


Band:           Grateful Dead
Torrent Name:   gd1987-07-12.137298.set3.aud.GEMS.flac16
Uploaded by:    greendude
DB Link:        
Details:        http://bt.etree.org/details.php?id=590095

Contact the seeder at http://db.etree.org/greendude

If the link to this show does not work, it was probably removed for
being non-trade-friendly.

Description / text file:
-------------------------
Grateful Dead and Bob Dylan
Sunday July 12, 1987
Giants Stadium
East Rutherford, NJ

Audience

Sony L-750ESX-HFB Dynamicron EXCELLENT SUPER HIFI VIDEO CASSETTE->
Sony SLO-1800 STEREO VIDEOCASSETTE RECORDER->
Sony PCM-601ESD DIGITAL AUDIO PROCESSOR-> SP/DIF->
Mytek Stereo 192 Sample Rate Converter-> Upsampled to 44.1kHz/24bit->SP/DIF->
RME FIREFACE 800-> FireWire 400->
Lenovo K450e Desktop PC-> WaveLab 6.11

This recording was gratefully supplied by PO and Stucco TINA Holmes.

Audition CC 2015 Mastering by Jason Chastain
Track, FLAC and Pack by Drew Frazer

16 bit 44.1kHz
a project **GEMS** Betamania Release 2016-11-30

-Set 3-
01 tuning
02 Slow Train 
03 Stuck Inside Of Mobile With The Memphis Blues Again 
04 Tomorrow Is A Long Time 
05 Highway 61 Revisited 
06 It's All Over Now Baby Blue 
07 Ballad Of A Thin Man 
08 John Brown 
09 The Wicked Messenger 
10 Queen Jane Approximately 
11 Chimes Of Freedom 
12 Joey 
13 All Along The Watchtower 
14 The Times They Are A-Changin' 
-Encore-
15 crowd and tuning
16 Touch Of Grey > 
17 Knockin' On Heaven's Door

Notes:
Beta appears to be same source as 106804, but with more content after the encore
certainly a different source than 3422

Originally shared at www.shnflac.net

length     expanded size    cdr  WAVE problems  fmt   ratio  filename
     0:54.10        9549164 B   ---   --   ---xx   flac  0.3906  gd1987-07-12t101.flac
     4:14.21       44855036 B   ---   --   ---xx   flac  0.5883  gd1987-07-12t102.flac
     6:43.58       71225660 B   ---   --   ---xx   flac  0.5871  gd1987-07-12t103.flac
     5:27.34       57762812 B   ---   --   ---xx   flac  0.5553  gd1987-07-12t104.flac
     5:25.42       57428828 B   ---   --   ---xx   flac  0.5805  gd1987-07-12t105.flac
     6:15.62       66295868 B   ---   --   ---xx   flac  0.5647  gd1987-07-12t106.flac
     5:35.32       59169308 B   ---   --   ---xx   flac  0.5673  gd1987-07-12t107.flac
     5:43.31       60578156 B   ---   --   ---xx   flac  0.5717  gd1987-07-12t108.flac
     4:00.58       42472460 B   ---   --   ---xx   flac  0.5861  gd1987-07-12t109.flac
     4:58.19       52611932 B   ---   --   ---xx   flac  0.5438  gd1987-07-12t110.flac
     8:05.44       85657532 B   ---   --   ---xx   flac  0.5761  gd1987-07-12t111.flac
     9:31.55      100853804 B   ---   --   ---xx   flac  0.5813  gd1987-07-12t112.flac
     5:08.40       54425324 B   ---   --   ---xx   flac  0.6036  gd1987-07-12t113.flac
     4:33.40       48251324 B   ---   --   ---xx   flac  0.5813  gd1987-07-12t114.flac
     3:25.31       36234956 B   ---   --   ---xx   flac  0.4360  gd1987-07-12t115.flac
     6:13.27       65860748 B   ---   --   ---xx   flac  0.5887  gd1987-07-12t116.flac
     8:10.35       86518364 B   ---   --   ---xx   flac  0.4932  gd1987-07-12t117.flac
    94:27.39      999751276 B                            0.5627  (17 files)





More information about the bittorrent mailing list