[bittorrent] gd1986-12-16.mtx.bhp.137314.flac16

Automated Mailer noreply-bt.e at etree.org
Sat Dec 3 21:54:29 UTC 2016


Band:           Grateful Dead
Torrent Name:   gd1986-12-16.mtx.bhp.137314.flac16
Uploaded by:    greendude
DB Link:        
Details:        http://bt.etree.org/details.php?id=590094

Contact the seeder at http://db.etree.org/greendude

If the link to this show does not work, it was probably removed for
being non-trade-friendly.

Description / text file:
-------------------------
Grateful Dead  
Oakland Coliseum  
Oakland, CA
December 16, 1986

SBD + AUD Matrix 2 Source Mix

Set 1:
d1t01 - Hell in a Bucket
d1t02 - Row Jimmy
d1t03 - Me & My Uncle ->
d1t04 - Big River
d1t05 - Stagger Lee
d1t06 - New Minglewood Blues
d1t07 - When Push Comes To Shove
d1t08 - Sugaree ->
d1t09 - Jack Straw

Set 2:
d2t01 - Tuning
d2t02 - Box of Rain ->
d2t03 - Crazy Fingers ->
d2t04 - Estimated Prophet ->
d2t05 - Eyes of the World ->
d2t06 - Drums * ->
d2t07 - Willie & the Hand Jive *$% ->
d2t08 - Iko Iko *$% ->
d2t09 - Stella Blue ->
d2t10 - Sugar Magnolia

Encore:
d2t11 - In the Midnight Hour $

Jerry Garcia - Guitar
Bob Weir - Guitar
Brent Mydland - Keyboards (Without Brent %)
Phil Lesh - Bass
Bill Kreutzmann - Drums
Mickey Hart - Drums
Art Neville - Keyboards $
Brian Stoltz - Guitar $
Willie Green - Drums *

Audio Information:
Original  SBD (shnid = 99044)

Recording Info: 
SBD -> Cassette Master (Sony D5/TDK MX-XG90/Dolby B) 

Transfer Info: 
Cassette Master (Nakamichi DR-1/Dolby B) -> Sound Devices 744T (24bit/96k) ->
Samplitude Professional v10.2.1 -> FLAC/16
(2 Discs Audio / 2 Discs FLAC) 

All Transfers and Mastering By Charlie Miller 
charliemiller87 at earthlink.net 
May 14, 2009

Patch Info:
Nakamichi 300/CP4 -> Cassette Master -> FLAC (shnid=80849) supplies:
Drums (11:36 - 11:49)

Notes:
-- Thanks to Joani Walker and Paul Scotton for the Cassettes

Original AUD (shnid = 131396)
file-set 24bit/48kHz 

OTS AUD: Nakamichi CM300/CP4 shotguns > Sony TC-D5M > Maxell 
MX 90's with no Dolby, recording by Ted Gidley.

Transfer: MAC > Nakamichi CR-5A > Edirol FA-66 > Wavelab 2448 > 
CD-Wave (24bit output) > TLH > FLAC 2448 tagged. Transferred by 
Andrew F. 09/2014

SBD and AUD were patched with:
AUD (shnid = 88891)
taper : Joe D'Amico ''aka'' Joebeacon

nak 300 mics > sony d-5

infront of the soundboard
---------------------------------------------------------
- Mixed by kevtobin at yahoo.com
- FLAC conversion 02-DEC-2016 - Trader Little Helper
- Tagged 02-DEC-2016 - Tag&Rename
---------------------------------------------------------

Brokedown House Production

    length     expanded size    cdr  WAVE problems  fmt   ratio  filename
     7:05.58       75106460 B   ---   --   -----    wav  1.0000  gd1986-12-16d1t01.wav
    10:59.39      116339372 B   ---   --   -----    wav  1.0000  gd1986-12-16d1t02.wav
     2:44.34       29009612 B   ---   --   -----    wav  1.0000  gd1986-12-16d1t03.wav
     5:30.65       58364924 B   ---   --   -----    wav  1.0000  gd1986-12-16d1t04.wav
     6:36.33       69932060 B   ---   --   -----    wav  1.0000  gd1986-12-16d1t05.wav
     6:48.54       72098252 B   ---   --   -----    wav  1.0000  gd1986-12-16d1t06.wav
     6:12.20       65667884 B   ---   --   -----    wav  1.0000  gd1986-12-16d1t07.wav
     8:01.44       84951932 B   ---   --   -----    wav  1.0000  gd1986-12-16d1t08.wav
     5:00.24       52976492 B   ---   --   -----    wav  1.0000  gd1986-12-16d1t09.wav
     5:31.61       58531916 B   ---   --   -----    wav  1.0000  gd1986-12-16d2t01.wav
     8:19.14       88056572 B   ---   --   -----    wav  1.0000  gd1986-12-16d2t02.wav
    12:50.73      135999740 B   ---   --   -----    wav  1.0000  gd1986-12-16d2t03.wav
     6:41.13       70767020 B   ---   --   -----    wav  1.0000  gd1986-12-16d2t04.wav
    12:24.16      131279276 B   ---   --   -----    wav  1.0000  gd1986-12-16d2t05.wav
     6:12.65       65773724 B   ---   --   -----    wav  1.0000  gd1986-12-16d2t06.wav
     4:33.13       48187820 B   ---   --   -----    wav  1.0000  gd1986-12-16d2t07.wav
     8:01.64       84998972 B   ---   --   -----    wav  1.0000  gd1986-12-16d2t08.wav
     8:43.21       92306636 B   ---   --   -----    wav  1.0000  gd1986-12-16d2t09.wav
     4:32.41       48077276 B   ---   --   -----    wav  1.0000  gd1986-12-16d2t10.wav
   136:51.02     1448425940 B                            1.0000  (19 files)




More information about the bittorrent mailing list