[bittorrent] The Orange Constant The Ivy Buckhead Atlanta, Georgia 12/2/2016 (Schoeps CCM4V'S FOB)

Automated Mailer noreply-bt.e at etree.org
Sat Dec 3 15:50:49 UTC 2016


Band:           Other
Torrent Name:   The Orange Constant The Ivy Buckhead Atlanta, Georgia 12/2/2016 (Schoeps CCM4V'S FOB)
Uploaded by:    zmanatl
DB Link:        
Details:        http://bt.etree.org/details.php?id=590082

Contact the seeder at http://db.etree.org/zmanatl

If the link to this show does not work, it was probably removed for
being non-trade-friendly.

Description / text file:
-------------------------
The Orange Constant
The Ivy Buckhead
Atlanta, Georgia
12/2/2016 

Source: Schoeps CCM4V's>Lunatec V2>Benchmark AD2K>
Sound Devices 722 (24/44)
FOB/DFC/KFC/ZFC/AARP 5' From Stage, 6 1/2' High
DSP: Sound Devices 722>Sound Forge 10.0>CD Wave>flac(16)
ID3 Tagged In Foobar 2000
Recorded By: Z-Man
Seeded By: Z-Man

Disc I 1st Set

01 Greeting
02 Funky Bitch > 
03 Jam >
04 Funky Bitch
05 Franklin's Tower 
06 Roses Are Free
07 From The Grave
08 ? >
09 ? >
10 Fire On The Mountain
11 ?

Disc II 2nd Set

01 Jam > 
02 ? >
03 Fly Like An Eagle 
04 ? 
05 ?
06 Money For Nothing
07 Tall Boy >
08 Arlene Jam >
09 Tall Boy >
10 Arlene Jam >
11 Don't Stop >
12 Dayman Fighter Of The Nightman 
13 Sultans Of Swing

Andrew Brantley - Guitar And Vocals
Nickalous Benson - Guitar
Tyler Walker - Bass And Vocals
Chris Freiberg - Keyboards
Scott Underwood - Drums (Filling In For Lee Guentert)

theorange2016-12-02D01T01.flac:99e98e67460ecc9eca13fcbfef36afc5
theorange2016-12-02D01T02.flac:a4ecc22ec3e5890f0a003bdb3444eee2
theorange2016-12-02D01T03.flac:89e6bb03483f509ae1f50b353d0a80be
theorange2016-12-02D01T04.flac:df3838b045b35877f6ac352f79c2bb35
theorange2016-12-02D01T05.flac:8db71363a505d9e246f45f548fd2a6b7
theorange2016-12-02D01T06.flac:e40298bac7eca3c2e99ea35a37ab123d
theorange2016-12-02D01T07.flac:65b4d794468631164e7c63634da2e13e
theorange2016-12-02D01T08.flac:aab31124e020e5cb96a0a52183bf8552
theorange2016-12-02D01T09.flac:b8d9ddf5df82bb6f538b1cce3a954bd2
theorange2016-12-02D01T10.flac:e8f398c7f11b6473c1587a2660322770
theorange2016-12-02D01T11.flac:1607d5d8645478d85ebeb55891899539
theorange2016-12-02D02T01.flac:87150eb621eeac04070c1a78d88a13fd
theorange2016-12-02D02T02.flac:bb0ab67ed3e563a61af4b7473cdbcbd1
theorange2016-12-02D02T03.flac:0b9849d09aedc47b2b299e64a89e45c5
theorange2016-12-02D02T04.flac:ae781a4b5b77f5e202a9d60ae75741fb
theorange2016-12-02D02T05.flac:0b3d3265bfd5ad43c1464a05f99e9d80
theorange2016-12-02D02T06.flac:449502646e078eab33c02c051a3acc94
theorange2016-12-02D02T07.flac:c6445542286509a3d73e1918d1d0dae5
theorange2016-12-02D02T08.flac:b9e1e44fdf5783146721ae631caa5280
theorange2016-12-02D02T09.flac:951c24fadbb0229f93241e9a2cf6769d
theorange2016-12-02D02T10.flac:80b26961e8deb57a2c205c4ca2cc7e4c
theorange2016-12-02D02T11.flac:d5ebc6b4246cbec5a4979340db4c9530
theorange2016-12-02D02T12.flac:7cc661b0a6b102f3cef5afe3979ed20c
theorange2016-12-02D02T13.flac:712b667bdd1709e504424f64205ddf68

 length     expanded size    cdr  WAVE problems  fmt   ratio  filename
     0:24.60        4374764 B   ---   --   ---xx   flac  0.3590  theorange2016-12-02D01T01.flac
     5:37.64       59597372 B   ---   --   ---xx   flac  0.5831  theorange2016-12-02D01T02.flac
     4:17.20       45381884 B   ---   --   ---xx   flac  0.5731  theorange2016-12-02D01T03.flac
     1:58.01       20817596 B   ---   --   ---xx   flac  0.4588  theorange2016-12-02D01T04.flac
     8:48.56       93270956 B   ---   --   ---xx   flac  0.5375  theorange2016-12-02D01T05.flac
     5:13.56       55344956 B   ---   --   ---xx   flac  0.5286  theorange2016-12-02D01T06.flac
     8:58.29       94971452 B   ---   --   ---xx   flac  0.5321  theorange2016-12-02D01T07.flac
     5:01.20       53143484 B   ---   --   ---xx   flac  0.5235  theorange2016-12-02D01T08.flac
     5:00.22       52971788 B   ---   --   ---xx   flac  0.5654  theorange2016-12-02D01T09.flac
     8:51.14       93701372 B   ---   --   ---xx   flac  0.5141  theorange2016-12-02D01T10.flac
     8:52.09       93866012 B   ---   --   ---xx   flac  0.5423  theorange2016-12-02D01T11.flac
     2:33.12       27017468 B   ---   --   ---xx   flac  0.4026  theorange2016-12-02D02T01.flac
     9:51.16      104290076 B   ---   --   ---xx   flac  0.5652  theorange2016-12-02D02T02.flac
     7:51.65       83237324 B   ---   --   ---xx   flac  0.6065  theorange2016-12-02D02T03.flac
     6:58.41       73831676 B   ---   --   ---xx   flac  0.5028  theorange2016-12-02D02T04.flac
    12:03.11      127563116 B   ---   --   ---xx   flac  0.5601  theorange2016-12-02D02T05.flac
     9:02.52       95731148 B   ---   --   ---xx   flac  0.5675  theorange2016-12-02D02T06.flac
     4:15.43       45083180 B   ---   --   ---xx   flac  0.6270  theorange2016-12-02D02T07.flac
     2:02.04       21530252 B   ---   --   ---xx   flac  0.6251  theorange2016-12-02D02T08.flac
     0:57.08       10073660 B   ---   --   ---xx   flac  0.5955  theorange2016-12-02D02T09.flac
     5:04.71       53792636 B   ---   --   ---xx   flac  0.6256  theorange2016-12-02D02T10.flac
     5:08.64       54481772 B   ---   --   ---xx   flac  0.6124  theorange2016-12-02D02T11.flac
     5:10.00       54684044 B   ---   --   ---xx   flac  0.5445  theorange2016-12-02D02T12.flac
     7:05.02       74974748 B   ---   --   ---xx   flac  0.5676  theorange2016-12-02D02T13.flac
   141:07.65     1493732736 B                            0.5549  (24 files)














More information about the bittorrent mailing list