[bittorrent] Pigeons Playing Ping Pong Terminal West Atlanta, Georgia 12/2/2016 (Schoeps CCM4V'S FOB)

Automated Mailer noreply-bt.e at etree.org
Sat Dec 3 00:22:32 UTC 2016


Band:           Other
Torrent Name:   Pigeons Playing Ping Pong Terminal West Atlanta, Georgia 12/2/2016 (Schoeps CCM4V'S FOB)
Uploaded by:    zmanatl
DB Link:        
Details:        http://bt.etree.org/details.php?id=590076

Contact the seeder at http://db.etree.org/zmanatl

If the link to this show does not work, it was probably removed for
being non-trade-friendly.

Description / text file:
-------------------------
Pigeons Playing Ping Pong
Terminal West
Atlanta, Georgia
12/1/2016 

Source: Schoeps CCM4V's>Lunatec V2>Benchmark AD2K>
Sound Devices 722 (24/44)
FOB/DFC/KFC/ZFC/AARP Clamped To The Balcony Rail
DSP: Sound Devices 722>Sound Forge 10.0>CD Wave>flac(16)
ID3 Tagged In Foobar 2000
Recorded By: Z-Man
Seeded By: Z-Man

Disc I 

01 Greeting
02 ?
03 ?
04 Julia
05 ? >
06 ?

Disc II 

01 ?
02 *Get Back >
03 *Jam >
04 *Get Back >
05 Melting Lights 
06 ? >
07 ?

* With Eli Of Dopapod On Keyboards

pigeons2016-12-01d01t01.flac:79c1713b7cb030a67b9e41f3e2ace0b6
pigeons2016-12-01d01t02.flac:8058167afbb0d43a6c76b690fbf68fa3
pigeons2016-12-01d01t03.flac:a6a3730ca8c01185c0725a78964737a0
pigeons2016-12-01d01t04.flac:f859af6a8d2e8d71a4aaa80c90faa683
pigeons2016-12-01d01t05.flac:765b94590325c45ca0ca98a6e58142e8
pigeons2016-12-01d01t06.flac:a0b3664e5061d619df574e210e322f8e
pigeons2016-12-01d02t01.flac:290040d3ca679eafb46df0455457a66b
pigeons2016-12-01d02t02.flac:5ead262d21bf9defec2d17d282e402c4
pigeons2016-12-01d02t03.flac:b5edb6d80a7aa538e1f16e47f6e6b074
pigeons2016-12-01d02t04.flac:94f9823ed2d9bf6ceecd23c086b53119
pigeons2016-12-01d02t05.flac:472fdc390e2b861159656dad86ed01a0
pigeons2016-12-01d02t06.flac:685d86b0d5e0eaab140eb6f59544d62b
pigeons2016-12-01d02t07.flac:0e67a2e7066e666b0f81e9341a65c305

length     expanded size    cdr  WAVE problems  fmt   ratio  filename
    10:16.00      108662444 B   ---   --   ---xx   flac  0.4938  pigeons2016-12-01d01t01.flac
     5:57.74       63148892 B   ---   --   ---xx   flac  0.5065  pigeons2016-12-01d01t02.flac
     9:54.10      104805164 B   ---   --   ---xx   flac  0.5064  pigeons2016-12-01d01t03.flac
    11:06.72      117651788 B   ---   --   ---xx   flac  0.4802  pigeons2016-12-01d01t04.flac
    10:01.35      106098764 B   ---   --   ---xx   flac  0.5031  pigeons2016-12-01d01t05.flac
     0:32.00        5644844 B   ---   --   ---xx   flac  0.3486  pigeons2016-12-01d01t06.flac
     5:27.44       57786332 B   ---   --   ---xx   flac  0.4999  pigeons2016-12-01d02t01.flac
     4:26.56       47054156 B   ---   --   ---xx   flac  0.4845  pigeons2016-12-01d02t02.flac
     4:33.49       48272492 B   ---   --   ---xx   flac  0.4978  pigeons2016-12-01d02t03.flac
     1:55.26       20347196 B   ---   --   ---xx   flac  0.4829  pigeons2016-12-01d02t04.flac
     6:56.48       73495340 B   ---   --   ---xx   flac  0.4871  pigeons2016-12-01d02t05.flac
     7:45.29       82094252 B   ---   --   ---xx   flac  0.5269  pigeons2016-12-01d02t06.flac
    10:26.11      110452316 B   ---   --   ---xx   flac  0.5092  pigeons2016-12-01d02t07.flac
    89:20.04      945513980 B                            0.4986  (13 files)

















More information about the bittorrent mailing list