[bittorrent] Dopapod Terminal West Atlanta, Georgia 12/2/2016 (Schoeps CCM4V'S FOB)

Automated Mailer noreply-bt.e at etree.org
Fri Dec 2 20:21:30 UTC 2016


Band:           Other
Torrent Name:   Dopapod Terminal West Atlanta, Georgia 12/2/2016 (Schoeps CCM4V'S FOB)
Uploaded by:    zmanatl
DB Link:        
Details:        http://bt.etree.org/details.php?id=590072

Contact the seeder at http://db.etree.org/zmanatl

If the link to this show does not work, it was probably removed for
being non-trade-friendly.

Description / text file:
-------------------------
Dopapod
Terminal West
Atlanta, Georgia
12/1/2016 

Source: Schoeps CCM4V's>Lunatec V2>Benchmark AD2K>
Sound Devices 722 (24/44)
FOB/DFC/KFC/ZFC/AARP Clamped To The Balcony Rail
DSP: Sound Devices 722>Sound Forge 10.0>CD Wave>flac(16)
ID3 Tagged In Foobar 2000
Recorded By: Z-Man
Seeded By: Z-Man

Disc I 

01 Jam >
02 Trickery 
03 ?
04 ?
05 ?
06 ?
07 ?
08 ?

Disc II 

01 ?
02 ?
03 ?
04 ?
Encore:
05 Banter
06 Weedie
07 Black And White

dopapod2016-12-01d01t01.flac:b38e85dd5e6b3d7e29dd1960f277f5cf
dopapod2016-12-01d01t02.flac:84815a57d4f73c5858bb820611e655e1
dopapod2016-12-01d01t03.flac:70cb16a2edae7874520cc29842227925
dopapod2016-12-01d01t04.flac:261c9c060d6b9d8b33ccd4d264628a5d
dopapod2016-12-01d01t05.flac:9f6131596ce8d37f4025e82c8d7a39ad
dopapod2016-12-01d01t06.flac:7aa420742b5badd745da470e0811ed60
dopapod2016-12-01d01t07.flac:f954dc06fb61fab2d325cf76665350d6
dopapod2016-12-01d01t08.flac:8f486fb601ef76278b5e57fb0e1de5c0
dopapod2016-12-01d02t01.flac:d493baa2206b7691f217e8d748cef407
dopapod2016-12-01d02t02.flac:0307b02875ef99271eb724a5bcf0deaf
dopapod2016-12-01d02t03.flac:9066c5746847b4cc0986ace7b706d763
dopapod2016-12-01d02t04.flac:d33970712a5e7474ee301f77d2acb416
dopapod2016-12-01d02t05.flac:b177eedd44103970a7090a222eb44162
dopapod2016-12-01d02t06.flac:f66392aeab749e75ad2287437ac578d3
dopapod2016-12-01d02t07.flac:68095bb78eb6c5b2bb8335935c413da8

 length     expanded size    cdr  WAVE problems  fmt   ratio  filename
     2:06.40       22320524 B   ---   --   ---xx   flac  0.3657  dopapod2016-12-01d01t01.flac
     6:32.22       69200588 B   ---   --   ---xx   flac  0.5224  dopapod2016-12-01d01t02.flac
     6:06.11       64588316 B   ---   --   ---xx   flac  0.5439  dopapod2016-12-01d01t03.flac
    15:34.03      164764700 B   ---   --   ---xx   flac  0.5555  dopapod2016-12-01d01t04.flac
    10:37.41      112463276 B   ---   --   ---xx   flac  0.5313  dopapod2016-12-01d01t05.flac
     2:56.71       31213436 B   ---   --   ---xx   flac  0.4685  dopapod2016-12-01d01t06.flac
     9:02.40       95702924 B   ---   --   ---xx   flac  0.5257  dopapod2016-12-01d01t07.flac
    10:04.71      106712636 B   ---   --   ---xx   flac  0.5191  dopapod2016-12-01d01t08.flac
     6:44.57       71399708 B   ---   --   ---xx   flac  0.4558  dopapod2016-12-01d02t01.flac
     5:26.39       57598172 B   ---   --   ---xx   flac  0.5428  dopapod2016-12-01d02t02.flac
    13:15.67      140395628 B   ---   --   ---xx   flac  0.5271  dopapod2016-12-01d02t03.flac
     9:56.62      105280268 B   ---   --   ---xx   flac  0.4906  dopapod2016-12-01d02t04.flac
     0:42.37        7495868 B   ---   --   ---xx   flac  0.3761  dopapod2016-12-01d02t05.flac
     4:37.62       49008668 B   ---   --   ---xx   flac  0.5153  dopapod2016-12-01d02t06.flac
    10:48.71      114474236 B   ---   --   ---xx   flac  0.5192  dopapod2016-12-01d02t07.flac
   114:34.19     1212618948 B                            0.5179  (15 files)












More information about the bittorrent mailing list