[bittorrent] Karl Denson's Tiny Universe Featuring , Jimmy Herring Athens, Georgia 11/30/2016 (Schoeps CCM4V'S FOB)

Automated Mailer noreply-bt.e at etree.org
Thu Dec 1 13:20:56 UTC 2016


Band:           Karl Denson's Tiny Universe
Torrent Name:   Karl Denson's Tiny Universe Featuring ,Jimmy Herring Athens, Georgia 11/30/2016 (Schoeps CCM4V'S FOB)
Uploaded by:    zmanatl
DB Link:        
Details:        http://bt.etree.org/details.php?id=590061

Contact the seeder at http://db.etree.org/zmanatl

If the link to this show does not work, it was probably removed for
being non-trade-friendly.

Description / text file:
-------------------------
Karl Denson's Tiny Universe Featuring Jimmy Herring
40 Watt Club
Athens, Georgia
11/30/2016 

Source: Schoeps CCM4V's>Lunatec V2>Benchmark AD2K>
Sound Devices 722 (24/44)
FOB/DFC/KFC/ZFC/AARP 30' From Stage, 7' High
DSP: Sound Devices 722>Sound Forge 10.0>CD Wave>flac(16)
ID3 Tagged In Foobar 2000
Recorded By: Z-Man
Seeded By: Z-Man

Disc I 

01 Power Soul 
02 Boogaloo
03 *Down, Down, Down
04 *The Clap
05 *Just Got Paid
06 *Come Dancing
07 Karl Banter
08 *Have You Seen Him
09 *When I Get Home
10 *Some Skunk Funk

Disc II 

01 *Young Americans
02 *Millvale, Pennsylvania
03 *Monkstrap
04 *Feelin' Real
05 *Satisfied
Encore:
06 Karl Denson - Thanks
07 *New York City

kdtu2016-11-30d01t01.flac:973f58dd09df30380019f5c7d40b45ae
kdtu2016-11-30d01t02.flac:0b9b39292c3bf53b9d0845d998720b5f
kdtu2016-11-30d01t03.flac:977a7cc84835f440809d29b31a8a97ef
kdtu2016-11-30d01t04.flac:b6cc8784efa2a7999d0c2ebe340c4228
kdtu2016-11-30d01t05.flac:33fa87737b225f504d0135c5f64442a6
kdtu2016-11-30d01t06.flac:ead6153018ce8d844c030f2be67a923f
kdtu2016-11-30d01t07.flac:16b84f10ac8a925af956ea9bd5aedfbe
kdtu2016-11-30d01t08.flac:b8242e9d17da3ad06c44d991cb0e3530
kdtu2016-11-30d01t09.flac:e1df1509e2974772a80e1158697f15a6
kdtu2016-11-30d01t10.flac:e05156e0d7327975a4d3907fe6cfde9b
kdtu2016-11-30d02t01.flac:736393d4eda236e6d69167bad4bb6181
kdtu2016-11-30d02t02.flac:05b4879865e7ce8b09e427099ed31fcc
kdtu2016-11-30d02t03.flac:356989a4af2bacb7373517b02e1a6638
kdtu2016-11-30d02t04.flac:d9dba69795beaa695ec7c52b781596c2
kdtu2016-11-30d02t05.flac:201340487061cd924ab8693b98e1cc7f
kdtu2016-11-30d02t06.flac:1ccf99eafe9117a9e51fe36c874f780e
kdtu2016-11-30d02t07.flac:1b4272668d818cf617fb3d214f9035f3

 length     expanded size    cdr  WAVE problems  fmt   ratio  filename
     7:07.62       75468668 B   ---   --   ---xx   flac  0.5590  kdtu2016-11-30d01t01.flac
     6:04.39       64301372 B   ---   --   ---xx   flac  0.5153  kdtu2016-11-30d01t02.flac
     7:26.40       78768524 B   ---   --   ---xx   flac  0.5302  kdtu2016-11-30d01t03.flac
     3:57.51       41926796 B   ---   --   ---xx   flac  0.4965  kdtu2016-11-30d01t04.flac
     5:59.02       63332348 B   ---   --   ---xx   flac  0.5506  kdtu2016-11-30d01t05.flac
     7:43.12       81701468 B   ---   --   ---xx   flac  0.5308  kdtu2016-11-30d01t06.flac
     1:21.37       14375468 B   ---   --   ---xx   flac  0.3645  kdtu2016-11-30d01t07.flac
     6:26.09       68111612 B   ---   --   ---xx   flac  0.5424  kdtu2016-11-30d01t08.flac
    11:53.28      125839100 B   ---   --   ---xx   flac  0.5442  kdtu2016-11-30d01t09.flac
     7:10.36       75936716 B   ---   --   ---xx   flac  0.5387  kdtu2016-11-30d01t10.flac
     7:56.54       84093452 B   ---   --   ---xx   flac  0.4973  kdtu2016-11-30d02t01.flac
     8:57.09       94748012 B   ---   --   ---xx   flac  0.5396  kdtu2016-11-30d02t02.flac
     9:54.04      104791052 B   ---   --   ---xx   flac  0.4876  kdtu2016-11-30d02t03.flac
     9:45.30      103264604 B   ---   --   ---xx   flac  0.5484  kdtu2016-11-30d02t04.flac
    16:18.42      172618028 B   ---   --   ---xx   flac  0.5313  kdtu2016-11-30d02t05.flac
     1:23.22       14692988 B   ---   --   ---xx   flac  0.3930  kdtu2016-11-30d02t06.flac
     9:47.44      103650332 B   ---   --   ---xx   flac  0.5392  kdtu2016-11-30d02t07.flac
   129:12.71     1367620540 B                            0.5277  (17 files)







Jimmy Herring - Guitar

jim




More information about the bittorrent mailing list