No subject


Wed Jan 20 09:03:46 MST 2010


Disc 3:
Set 2 cont...

Encore:
Bakers Dozen

This will fit onto two discs if you burn D3to1 onto the end of Disc 1

    length     expanded size   cdr  WAVE problems filename
     1:35.01       16760396    ---   --   -----   galactic2010-02-03_mk41_1644_d1t01.wav
     7:32.63       79881020    ---   --   -----   galactic2010-02-03_mk41_1644_d1t02.wav
     6:06.04       64571852    ---   --   -----   galactic2010-02-03_mk41_1644_d1t03.wav
     4:49.00       50979644    ---   --   -----   galactic2010-02-03_mk41_1644_d1t04.wav
     6:44.06       71279756    ---   --   -----   galactic2010-02-03_mk41_1644_d1t05.wav
     4:55.35       52120364    ---   --   -----   galactic2010-02-03_mk41_1644_d1t06.wav
     4:45.38       50363420    ---   --   -----   galactic2010-02-03_mk41_1644_d1t07.wav
     4:37.12       48891068    ---   --   -----   galactic2010-02-03_mk41_1644_d1t08.wav
     9:10.43       97121180    ---   --   -----   galactic2010-02-03_mk41_1644_d1t09.wav
     3:29.05       36879404    ---   --   -----   galactic2010-02-03_mk41_1644_d1t10.wav
     8:03.44       85304732    ---   --   -----   galactic2010-02-03_mk41_1644_d1t11.wav
     1:15.08       13248860    ---   --   -----   galactic2010-02-03_mk41_1644_d2t01.wav
     7:23.61       78288716    ---   --   -----   galactic2010-02-03_mk41_1644_d2t02.wav
    11:07.07      117675308    ---   --   -----   galactic2010-02-03_mk41_1644_d2t03.wav
     5:33.45       58847084    ---   --   -----   galactic2010-02-03_mk41_1644_d2t04.wav
     4:10.07       44116508    ---   --   -----   galactic2010-02-03_mk41_1644_d2t05.wav
     5:26.59       57645212    ---   --   -----   galactic2010-02-03_mk41_1644_d2t06.wav
     3:53.32       41176508    ---   --   -----   galactic2010-02-03_mk41_1644_d2t07.wav
     6:47.43       71895980    ---   --   -----   galactic2010-02-03_mk41_1644_d2t08.wav
    10:53.22      115240988    ---   --   -----   galactic2010-02-03_mk41_1644_d2t09.wav
    17:06.71      181153436    ---   --   -----   galactic2010-02-03_mk41_1644_d2t10.wav
    11:51.63      125568620    ---   --   -----   galactic2010-02-03_mk41_1644_d3t01.wav
   147:17.69     1559010056 B                     (totals for 22 files, 1.0000 overall compression ratio)




More information about the bittorrent mailing list