[bittorrent] Infamoaus Strindusters ISD2009-10-23.Happy.Days.Lodge.gems.

Automated Mailer noreply-bt.e at etree.org
Sat Jan 30 15:05:43 MST 2010


Band:           Infamous Stringdusters
Torrent Name:   Infamoaus Strindusters ISD2009-10-23.Happy.Days.Lodge.gems.
Uploaded by:    bluedakota
DB Link:        
Details:        http://bt.etree.org/details.php?id=532019

Contact the seeder at http://db.etree.org/bluedakota

If the link to this show does not work, it was probably removed for
being non-trade-friendly.

Description / text file:
-------------------------
Infamous Stringdusters
Happy Days Lodge
Peninsula, Ohio
10/23/2009

A Project GEMS Release

Set 1 = Soundboard
Set 2 = Matrix (70% SBD + 30% Aud)  

FOB Audience Recording
Recorded by Todd Evans, todd at bluedakota.com

SBD Recording by Steve Randolph (16/44.1 DAT)

AUD Recording Equipment: 
Schoeps CCM4's (ORTF Pattern on stand at 7.5’) -> 
Sonosax SX-M1 Mic Preamp -> Monster M1000 Jumper Cables -> 
Korg MR-1000 (DSDIFF, 5.6448 MHz @ 1-bit)

Aud Recording Note:
I set-up about the mics 25 feet from stage DFC. Part way in to set 1, 
I feel a breeze start up. I look up and see that someone has turned on the
ceiling fan which is about 15 feet above the mics. SHIT. Wind noise
will be recorded. Prior to set2, I move the mic stand forward about
8 feet to eliminate the "wind rumble". 

Note: there was an original torrent where Set 1 and Set 2 were 
an aud/sbd matrix. Due to the wind rumble noise in set1, the
torrent was reworked to this one where Set 1 is sbd only and 
set 2 is a matrix.

AUD DSD Conversion: 
Korg MR-1000 (DSDIFF, 5.6448 MHz @ 1-bit) Files -> 
Korg Audio Gate -> 24 bit 88.2kHz wav

Matrix Synch accomplished in Wavelab
16 bit 44.1kHz wav from SBD DAT was SRC to 24/88.2 in Weiss Saracon 
to match the 24/88.2 Aud wav.
70% SBD + 30% AUD

Editing and Mastering: 	
Jamie Waddell on the GEMS Edit Station. 
Weiss Saracon for SRC to 16-bit 44.1kHz and POWR-3 Dither; 
Flac Frontend level 8

Tagging - Tag & Rename for FLAC Meta-Tagging

A **GEMS** Production  www.shnflac.net  

Set One
CD1 |  Track01 |  0:47 |  Set 1 Intro
CD1 |  Track02 |  4:15 |  No More To Leave You Behind
CD1 |  Track03 |  4:41 |  Traveling Teardrop Blues >
CD1 |  Track04 |  3:44 |  Glass Elevator
CD1 |  Track05 |  1:06 |  Banter
CD1 |  Track06 |  3:35 |  Starry Night
CD1 |  Track07 |  4:16 |  Hit Parade of Love
CD1 |  Track08 |  6:45 |  Lonesome River
CD1 |  Track09 |  9:22 |  Pronto
CD1 |  Track10 |  3:34 |  I Am A Stranger
CD1 |  Track11 |  0:51 |  Banter
CD1 |  Track12 |  6:24 |  Well, Well

Set Two
CD2 |  Track13 |  0:30 |  Set 2 Intro 
CD2 |  Track14 |  3:46 |  Fork in the Road
CD2 |  Track15 |  5:01 |  Get It While You Can
CD2 |  Track16 |  4:49 |  Tragic Life
CD2 |  Track17 |  8:42 |  Rain
CD2 |  Track18 |  4:27 |  Dance with Me Molly
CD2 |  Track19 |  1:00 |  Banter
CD2 |  Track20 |  4:22 |  Wichita Stomp
CD2 |  Track21 |  7:08 |  Getting Down The Road (Hillbilly’s Nightclub)
CD2 |  Track22 |  1:20 |  Banter
CD2 |  Track23 |  2:58 |  Dream You Back
CD2 |  Track24 |  4:34 |  Sunny Side of the Mountain
CD2 |  Track25 |  4:22 |  Jam – Instrumental

Encore
CD2 |  Track26 |  1:30 |  Crowd – Encore Banter
CD2 |  Track27 |  0:32 |  Wabash Cannonball Birthday Request
CD2 |  Track28 |  0:45 |  Banter
CD2 |  Track29 |  3:41 |  Climb Up To The Mountain


shntool 3.0.4
Copyright (C) 2000-2007 Jason Jordan <shnutils at freeshell.org>

    length     expanded size    cdr  WAVE problems  fmt   ratio  filename
     0:47.37        8377868 B   ---   --   ---xx   flac  0.4107  ISD2009-10-23.gems.Track01.flac
     4:14.69       44967932 B   ---   --   ---xx   flac  0.4422  ISD2009-10-23.gems.Track02.flac
     4:40.51       49511996 B   ---   --   ---xx   flac  0.4457  ISD2009-10-23.gems.Track03.flac
     3:44.23       39567740 B   ---   --   ---xx   flac  0.4542  ISD2009-10-23.gems.Track04.flac
     1:06.31       11715356 B   ---   --   ---xx   flac  0.3881  ISD2009-10-23.gems.Track05.flac
     3:34.66       37904876 B   ---   --   ---xx   flac  0.4469  ISD2009-10-23.gems.Track06.flac
     4:16.01       45160796 B   ---   --   ---xx   flac  0.4708  ISD2009-10-23.gems.Track07.flac
     6:45.35       71524364 B   ---   --   ---xx   flac  0.4083  ISD2009-10-23.gems.Track08.flac
     9:22.19       99181532 B   ---   --   ---xx   flac  0.4285  ISD2009-10-23.gems.Track09.flac
     3:33.40       37667324 B   ---   --   ---xx   flac  0.4465  ISD2009-10-23.gems.Track10.flac
     0:50.73        8991740 B   ---   --   ---xx   flac  0.3896  ISD2009-10-23.gems.Track11.flac
     6:23.58       67697660 B   ---   --   ---xx   flac  0.4588  ISD2009-10-23.gems.Track12.flac
     0:30.21        5341436 B   ---   --   ---xx   flac  0.5292  ISD2009-10-23.gems.Track13.flac
     3:45.67       39847628 B   ---   --   ---xx   flac  0.5756  ISD2009-10-23.gems.Track14.flac
     5:01.15       53131724 B   ---   --   ---xx   flac  0.5527  ISD2009-10-23.gems.Track15.flac
     4:49.10       51003164 B   ---   --   ---xx   flac  0.5460  ISD2009-10-23.gems.Track16.flac
     8:42.13       92111420 B   ---   --   ---xx   flac  0.5424  ISD2009-10-23.gems.Track17.flac
     4:26.43       47023580 B   ---   --   ---xx   flac  0.4894  ISD2009-10-23.gems.Track18.flac
     0:59.38       10497020 B   ---   --   ---xx   flac  0.4892  ISD2009-10-23.gems.Track19.flac
     4:21.55       46169804 B   ---   --   ---xx   flac  0.5720  ISD2009-10-23.gems.Track20.flac
     7:07.62       75468668 B   ---   --   ---xx   flac  0.5729  ISD2009-10-23.gems.Track21.flac
     1:20.07       14128508 B   ---   --   ---xx   flac  0.5100  ISD2009-10-23.gems.Track22.flac
     2:58.03       31406300 B   ---   --   ---xx   flac  0.6061  ISD2009-10-23.gems.Track23.flac
     4:33.49       48272492 B   ---   --   ---xx   flac  0.5946  ISD2009-10-23.gems.Track24.flac
     4:21.66       46195676 B   ---   --   ---xx   flac  0.5541  ISD2009-10-23.gems.Track25.flac
     1:30.21       15925436 B   ---   --   ---xx   flac  0.5399  ISD2009-10-23.gems.Track26.flac
     0:31.65        5621324 B   ---   --   ---xx   flac  0.5625  ISD2009-10-23.gems.Track27.flac
     0:45.13        7968620 B   ---   --   ---xx   flac  0.5269  ISD2009-10-23.gems.Track28.flac
     3:41.30       39055004 B   ---   --   ---xx   flac  0.6060  ISD2009-10-23.gems.Track29.flac
   108:47.31     1151436988 B                            0.5038  (29 files)





More information about the bittorrent mailing list