[bittorrent] jg63-02-23.wb.aud.mogol.4501.sbeok.shnf

Automated Mailer noreply-bt.e at etree.org
Tue Jan 26 12:41:30 MST 2010


Band:           Garcia
Torrent Name:   jg63-02-23.wb.aud.mogol.4501.sbeok.shnf
Uploaded by:    wally
DB Link:        http://db.etree.org/shninfo_detail.php?shnid=4501
Details:        http://bt.etree.org/details.php?id=531897

Contact the seeder at http://db.etree.org/wally

If the link to this show does not work, it was probably removed for
being non-trade-friendly.

Description / text file:
-------------------------
Wildwood Boys
02/23/63
Top of The Tangent  Palo Alto, CA

audience master reel->reel->FM->cassette->DAT->CD

Jarry Garcia - guitar, banjo, vocals 
David Nelson  - guitar
Robert Hunter - bass, guitar
Norm Van Mastricht - bass, guitar, dobro

1. Introductions  [0:47]
2. Rollin' In My Sweet Babys Arms  [4:05]
3. Jerry's Breakdown  [2:25]
4. Standing In The Need Of Prayer  [3:06]
5. Muleskinner Blues  [3:50]
6. Guitar Instrumental [3:25]
7. Pike County Breakdown  [2:53]
8. Come All Ye Fair And Tender Maidens  [4:13]
9. We Shall Not Be Moved  [3:17]

DAT->CD and wav.->.shn conversions by Scott Mogol <smogol at intr.net>
upped by Gary King and his mighty DSL   :)
    length     expanded size   cdr  WAVE problems filename
     0:47.12        8319068    ---   --   ---xx   garcia1963-02-23t01.shn
     4:05.54       43345052    ---   --   ---xx   garcia1963-02-23t02.shn
     2:25.57       25712108    ---   --   ---xx   garcia1963-02-23t03.shn
     3:06.35       32892764    ---   --   ---xx   garcia1963-02-23t04.shn
     3:50.74       40746092    ---   --   ---xx   garcia1963-02-23t05.shn
     3:25.22       36213788    ---   --   ---xx   garcia1963-02-23t06.shn
     2:53.46       30625436    ---   --   ---xx   garcia1963-02-23t07.shn
     4:13.56       44760956    ---   --   ---xx   garcia1963-02-23t08.shn
     3:17.21       34800236    ---   --   ---xx   garcia1963-02-23t09.shn
    28:06.02      297415500 B                     (totals for 9 files, 0.4870 overall compression ratio)




More information about the bittorrent mailing list