[bittorrent] gd77-10-28.mtx.tobin.101196.flac16

Automated Mailer noreply-bt.e at etree.org
Mon Jan 25 13:40:50 MST 2010


Band:           Grateful Dead
Torrent Name:   gd77-10-28.mtx.tobin.101196.flac16
Uploaded by:    L_KIRA
DB Link:        http://db.etree.org/shn/101196
Details:        http://bt.etree.org/details.php?id=531861

Contact the seeder at http://db.etree.org/L_KIRA

If the link to this show does not work, it was probably removed for
being non-trade-friendly.

Description / text file:
-------------------------
Grateful Dead 
October 28, 1977
Soldier's And Sailors Memorial Hall, 
Kansas City, KS

SBD + AUD Matrix 2 Source Mix(55%-SBD/45%-AUD)


Set 1:
d1t01 - The Promised Land
d1t02 - They Love Each Other
d1t03 - Cassidy
d1t04 - Tennessee Jed
d1t05 - Mexicali Blues ->
d1t06 - Big River
d1t07 - Brown Eyed Women
d1t08 - Lazy Lightnin' ->
d1t09 - Supplication
d1t10 - Deal

Set 2:
d2t01 - Samson And Delilah
d2t02 - Candyman
d2t03 - Sunrise
d2t04 - Passenger
d3t01 - He's Gone ->
d3t02 - Drums ->
d3t03 - Not Fade Away ->
d3t04 - Stella Blue ->
d3t05 - Goin' Down The Road Feeling Bad ->
d3t06 - Around And Around

Encore:
d3t07 - Casey Jones

Audio Source Information
SBD (shnid=96159)

Recording Info:
SBD -> Master Reel -> PCM -> Dat

Transfer Info:
Dat (Sony R500) -> Samplitude Professional v10.1 -> FLAC
(3 Discs Audio / 2 Discs FLAC)

All Transfers and Mastering By Charlie Miller
charliemiller87 at earthlink.net
December 1, 2008

Patch Info:
Sony ECM-990 -> Cassette Master -> Reel -> CD supplies:
The Promised Land (0:00 - 0:22)
He's Gone (14:43 - 15:00)
Around And Around (7:45 - 8:49)

Notes:
-- Set 2 is seamless
-- Thanks to David Minches for the patch source
-- Thanks to Joe B. Jones for his help with the patch source pitch correction

AUD (shnid=96569)

Recording Info:
Sony ECM-990 -> Cassette Master -> Reel -> FLAC

Transfer and FLAC encoding by David Minches:
Reel played back on Akai GX-4000D> ART DI/O> Digital Audio Labs Card Deluxe> Adobe Audition 2.0> (speed correction/dither/downsample)> FLAC encoding

Thanks to Bob Wagner for the reel.
Special thanks to Joe B. Jones for his help with the pitch correction.  Just about every song required some correction as the speed varied throughout the tape.

---------------------------------------------------------
- Mixed by kevtobin at yahoo.com
- FLAC conversion 09-SEP-2009  
---------------------------------------------------------
Multitrack Mixdown Settings

SET ONE

Stereo Matrix
SBD -0
AUD -.5

SET TWO

Stereo Matrix
SBD -0
AUD -.5
---------------------------------------------------------
Audio Patches:

1) Between Tennessee Jed and Mexicali Blues, 47.950 seconds were missing from the audience source and was filled in with audio from the soundboard source.

2) Between Big River and Brown Eyed Women, 52.039 seconds were missing from the audience source and was filled in with audio from the soundboard source.

3) At the beginning of the second set audience, 1 minute and 08.824 seconds were missing from the audience source and was filled in with audio from the soundboard source.

4) Between Samson And Delilah and Candyman, 2 minutes and 15.970 seconds were missing from the audience source and was filled in with audio from the soundboard source.

5) Between Candyman and Sunrise, 1 minutes and 32.971 seconds were missing from the audience source and was filled in with audio from the soundboard source.

6) Between Sunrise and Passenger, 1 minutes and 15.402 seconds were missing from the audience source and was filled in with audio from the soundboard source.

7) Between Passenger and He's Gone, 2 minutes and 55.724 seconds were missing from the audience source and was filled in with audio from the soundboard source. This is at the end of Disk 2.

8) 10 minutes into Stella Blue, 24.560 seconds were missing from the audience source and was filled in with audio from the soundboard source.

9) Charlie Miller's 3 patches to the soundboard during Promised Land, He's Gone and Around and Around were left as is.

10) Matrix\DTS were synced using the soundboard as a reference.

Brokedown House Production

    length     expanded size    cdr  WAVE problems  fmt   ratio  filename
     6:29.37       68706668 B   ---   --   -----    wav  1.0000  gd1977-10-28d1t01.wav
    10:45.74      113952092 B   ---   --   -----    wav  1.0000  gd1977-10-28d1t02.wav
     6:49.45       72253484 B   ---   --   -----    wav  1.0000  gd1977-10-28d1t03.wav
    12:51.30      136075004 B   ---   --   -----    wav  1.0000  gd1977-10-28d1t04.wav
     3:13.35       34127564 B   ---   --   -----    wav  1.0000  gd1977-10-28d1t05.wav
     8:00.65       84824924 B   ---   --   -----    wav  1.0000  gd1977-10-28d1t06.wav
     7:16.62       77056268 B   ---   --   -----    wav  1.0000  gd1977-10-28d1t07.wav
     3:21.39       35548172 B   ---   --   -----    wav  1.0000  gd1977-10-28d1t08.wav
     6:38.13       70237820 B   ---   --   -----    wav  1.0000  gd1977-10-28d1t09.wav
     7:01.25       74323244 B   ---   --   -----    wav  1.0000  gd1977-10-28d1t10.wav
    11:10.57      118322108 B   ---   --   -----    wav  1.0000  gd1977-10-28d2t01.wav
     9:02.43       95709980 B   ---   --   -----    wav  1.0000  gd1977-10-28d2t02.wav
     5:43.38       60594620 B   ---   --   -----    wav  1.0000  gd1977-10-28d2t03.wav
     7:25.22       78549788 B   ---   --   -----    wav  1.0000  gd1977-10-28d2t04.wav
    19:38.36      207883916 B   ---   --   -----    wav  1.0000  gd1977-10-28d3t01.wav
     3:23.64       35959772 B   ---   --   -----    wav  1.0000  gd1977-10-28d3t02.wav
    13:54.04      147127052 B   ---   --   -----    wav  1.0000  gd1977-10-28d3t03.wav
    11:26.67      121168028 B   ---   --   -----    wav  1.0000  gd1977-10-28d3t04.wav
     7:27.29       78919052 B   ---   --   -----    wav  1.0000  gd1977-10-28d3t05.wav
     9:17.35       98337164 B   ---   --   -----    wav  1.0000  gd1977-10-28d3t06.wav
     8:37.38       91288220 B   ---   --   -----    wav  1.0000  gd1977-10-28d3t07.wav
   179:36.33     1900964940 B                            1.0000  (21 files)



More information about the bittorrent mailing list