[bittorrent] Steppin' In It/Seth Bernard Blind Pig Ann Arbor, Michigan 1/22/2010 (Schoeps CCM4V'S FOB)

Automated Mailer noreply-bt.e at etree.org
Sat Jan 23 12:32:01 MST 2010


Band:           Other
Torrent Name:   Steppin' In It/Seth Bernard Blind Pig Ann Arbor, Michigan 1/22/2010 (Schoeps CCM4V'S FOB)
Uploaded by:    zmanatl
DB Link:        
Details:        http://bt.etree.org/details.php?id=531801

Contact the seeder at http://db.etree.org/zmanatl

If the link to this show does not work, it was probably removed for
being non-trade-friendly.

Description / text file:
-------------------------
Steppin' In It/Seth Bernard
The Blind Pig
Ann Arbor, Michigan
1/22/2010

Source: Schoeps CCM4V'S(din)>Lunatec V2>Benchmark AD2K>
Sound Devices 722 (24/48)
Location: FOB/DFC/KFC/ZFC/AARP 21' From Stage, 7' High
DSP: Sound Devices 722>Sound Forge 9.0>CD Wave>flac(16)
Recorded By: Z-Man
Seeded By: Z-Man

Disc I 

01 The Midnight Ghost >
02 ?
03 Tin Can Sullivan >
04 ? >
05 ?
06 ? Come Out Where Ever You Are
07 Country Pie
08 ?
09 The Big Parade
10 ?
11 ?
12 ?
13 ?
14 Miss Moline
15 ?

Disc II

01 Two Step Les Freres Wilson
02 Make Me A Pallet On The Floor
03 Stand Back
04 ?
05 ?
06 ?
07 Band Introductions/Jam >
08 ?
Encore:
09 Thanks
10 Having A Party 
Seth Bernard:
11 Banter
12 *
13 Seth Introducing Steppin' In It
14 #?
15 #Dinosaurs

* With Joshua Davis and Dominic John of Steppin' In It
# With Entire Steppin' In It

Flac Fingerprint 

steppininit2010-01-22d01t01.flac:151ecc400442660dacdb4fd4287b8acd
steppininit2010-01-22d01t02.flac:db6b9e8b35483b025f8c69f084156815
steppininit2010-01-22d01t03.flac:a6336d2ddbd1115afb7bc95b514afe9f
steppininit2010-01-22d01t04.flac:5576642500539efa046e306bdf41c9e5
steppininit2010-01-22d01t05.flac:5115944b7b60f5dae56773a712f0600c
steppininit2010-01-22d01t06.flac:56ae9daa0b2e163f1fbfbda229ce1dee
steppininit2010-01-22d01t07.flac:35ac8de290c4acae021e3b3ca0f65c0c
steppininit2010-01-22d01t08.flac:471b57dce3fd02950684be76e1c6aac0
steppininit2010-01-22d01t09.flac:f2b4c465ffc1fd199f7d7ea6aa21656b
steppininit2010-01-22d01t10.flac:aff6f742b253ba7f72eddd9a5933a139
steppininit2010-01-22d01t11.flac:0265ba382062f9c34bf5f40b29b58b8c
steppininit2010-01-22d01t12.flac:da022ca8f94b37574b9a746d3b835faf
steppininit2010-01-22d01t13.flac:b06b25469565decc71a97187002830b6
steppininit2010-01-22d01t14.flac:65d03756ff62a39133a2a8a8fdc2115c
steppininit2010-01-22d01t15.flac:0dc1632c1b37ed2353355135c4a0e386
steppininit2010-01-22d02t01.flac:1ff3f74e28fba3d4903217b609c49b47
steppininit2010-01-22d02t02.flac:eaa74a2ccb72fb0456521927d4713d19
steppininit2010-01-22d02t03.flac:c1269b4daa4e2c8fb3ba13d7da7634d4
steppininit2010-01-22d02t04.flac:9740157b48d2463c893b46c3b9d98482
steppininit2010-01-22d02t05.flac:6528d4af2fe24e913f5022c563938027
steppininit2010-01-22d02t06.flac:e4a75bf9c093cfaa7d2e366331a8eb77
steppininit2010-01-22d02t07.flac:8ca2cd8b8da4ae130393075e991e5889
steppininit2010-01-22d02t08.flac:f570c2c56d69303c0ab99d8676b6104e
steppininit2010-01-22d02t09.flac:2daf408bc4d7bad001511dec14c208f4
steppininit2010-01-22d02t10.flac:20c12630f5702a10a327adc5c82d07ee
steppininit2010-01-22d02t11.flac:3c624872a6b6a7b20945953edabcd7bd
steppininit2010-01-22d02t12.flac:731b66f84b6550d94e413b908cf97550
steppininit2010-01-22d02t13.flac:509ebc8dd685ecebc915a19386eca179
steppininit2010-01-22d02t14.flac:d67e93ed88edb5402a16b0a055e0ae52
steppininit2010-01-22d02t15.flac:f0871bc9164747cddc298685fdbbc09e

Shntool 

    length     expanded size    cdr  WAVE problems  fmt   ratio  filename
     3:49.54       40522652 B   ---   --   ---xx   flac  0.5722  steppininit2010-01-22d01t01.flac
     4:25.37       46833068 B   ---   --   ---xx   flac  0.5094  steppininit2010-01-22d01t02.flac
     5:16.72       55911788 B   ---   --   ---xx   flac  0.5300  steppininit2010-01-22d01t03.flac
     6:21.01       67210796 B   ---   --   ---xx   flac  0.5311  steppininit2010-01-22d01t04.flac
     4:33.28       48223100 B   ---   --   ---xx   flac  0.4986  steppininit2010-01-22d01t05.flac
     5:22.03       56807900 B   ---   --   ---xx   flac  0.5214  steppininit2010-01-22d01t06.flac
     3:34.39       37841372 B   ---   --   ---xx   flac  0.5553  steppininit2010-01-22d01t07.flac
     3:39.46       38739836 B   ---   --   ---xx   flac  0.5304  steppininit2010-01-22d01t08.flac
     4:51.26       51393596 B   ---   --   ---xx   flac  0.5473  steppininit2010-01-22d01t09.flac
     4:31.41       47900876 B   ---   --   ---xx   flac  0.5395  steppininit2010-01-22d01t10.flac
     4:29.28       47517500 B   ---   --   ---xx   flac  0.4956  steppininit2010-01-22d01t11.flac
     3:48.60       40360364 B   ---   --   ---xx   flac  0.5428  steppininit2010-01-22d01t12.flac
     4:17.73       45506540 B   ---   --   ---xx   flac  0.5114  steppininit2010-01-22d01t13.flac
     3:54.54       41404652 B   ---   --   ---xx   flac  0.4915  steppininit2010-01-22d01t14.flac
     3:49.17       40435628 B   ---   --   ---xx   flac  0.4699  steppininit2010-01-22d01t15.flac
     8:13.68       87125180 B   ---   --   ---xx   flac  0.4902  steppininit2010-01-22d02t01.flac
     5:42.26       60389996 B   ---   --   ---xx   flac  0.4176  steppininit2010-01-22d02t02.flac
     3:13.33       34122860 B   ---   --   ---xx   flac  0.5583  steppininit2010-01-22d02t03.flac
     6:30.53       68920700 B   ---   --   ---xx   flac  0.4615  steppininit2010-01-22d02t04.flac
     6:27.51       68386796 B   ---   --   ---xx   flac  0.5372  steppininit2010-01-22d02t05.flac
     5:01.24       53152892 B   ---   --   ---xx   flac  0.4921  steppininit2010-01-22d02t06.flac
     1:32.12       16257068 B   ---   --   ---xx   flac  0.5155  steppininit2010-01-22d02t07.flac
     6:29.10       68643164 B   ---   --   ---xx   flac  0.5527  steppininit2010-01-22d02t08.flac
     0:39.36        6964316 B   ---   --   ---xx   flac  0.3958  steppininit2010-01-22d02t09.flac
     4:46.52       50572748 B   ---   --   ---xx   flac  0.4813  steppininit2010-01-22d02t10.flac
     1:22.20       14511884 B   ---   --   ---xx   flac  0.3882  steppininit2010-01-22d02t11.flac
     3:46.68       40026380 B   ---   --   ---xx   flac  0.6009  steppininit2010-01-22d02t12.flac
     2:32.64       26963372 B   ---   --   ---xx   flac  0.3823  steppininit2010-01-22d02t13.flac
     5:59.33       63405260 B   ---   --   ---xx   flac  0.5308  steppininit2010-01-22d02t14.flac
     7:22.21       78018236 B   ---   --   ---xx   flac  0.4988  steppininit2010-01-22d02t15.flac
   136:26.25     1444070520 B                            0.5106  (30 files)






More information about the bittorrent mailing list