[bittorrent] Mutual Kumquat The Ark Ann Arbor, Michigan 1/22/2010 (Schoeps CCM4V'S FOB)

Automated Mailer noreply-bt.e at etree.org
Sat Jan 23 12:29:37 MST 2010


Band:           Other
Torrent Name:   Mutual Kumquat The Ark Ann Arbor, Michigan 1/22/2010 (Schoeps CCM4V'S FOB)
Uploaded by:    zmanatl
DB Link:        
Details:        http://bt.etree.org/details.php?id=531800

Contact the seeder at http://db.etree.org/zmanatl

If the link to this show does not work, it was probably removed for
being non-trade-friendly.

Description / text file:
-------------------------
Mutual Kumquat
The Ark
Ann Arbor, Michigan
1/22/2010

Source: Schoeps CCM4V'S(din)>Lunatec V2>Benchmark AD2K>
Sound Devices 722 (24/48)
Location: FOB/DLFC/KFC/ZFC/AARP Left Center, Row C, Seat 1, 6' High
DSP: Sound Devices 722>Sound Forge 9.0>CD Wave>flac(16)
Recorded By: Z-Man
Seeded By: Z-Man

Disc I 

01 Introduction By Matt Altruda
02 Good People
03 Bread And Butter
04 Looking Through These Pages
05 Snow Falling
06 Sweetest Song
07 System Fighters
08 Banter On Fruit Lovers
09 Let's Get Fruity

Flac Fingerprint 

mutualkumquats2010-01-22d01t01.flac:d8bf0e03a3df3bd99e274eec05f4e2e0
mutualkumquats2010-01-22d01t02.flac:28fe59c840b6bd94c68fa56d1736a5f9
mutualkumquats2010-01-22d01t03.flac:76a18cf3fcc6f7297e41ec7887f0711d
mutualkumquats2010-01-22d01t04.flac:e32bfd696c91220d2d19b7d28ccbf222
mutualkumquats2010-01-22d01t05.flac:397c35f493ab0ec5c11d3feea4b1c076
mutualkumquats2010-01-22d01t06.flac:482e1c0e9f12f0a279ada0ec28badbfa
mutualkumquats2010-01-22d01t07.flac:e428c72f00866d39bb688e7b80c3f6fd
mutualkumquats2010-01-22d01t08.flac:99854cef0d66b627f47c1c848e138a50
mutualkumquats2010-01-22d01t09.flac:200992545ca5cbbe42415f9d4508ef20

Shntool 

    length     expanded size    cdr  WAVE problems  fmt   ratio  filename
     1:26.65       15323324 B   ---   --   ---xx   flac  0.3629  mutualkumquats2010-01-22d01t01.flac
     4:07.41       43667276 B   ---   --   ---xx   flac  0.4979  mutualkumquats2010-01-22d01t02.flac
     3:48.69       40381532 B   ---   --   ---xx   flac  0.5289  mutualkumquats2010-01-22d01t03.flac
     3:44.47       39624188 B   ---   --   ---xx   flac  0.4610  mutualkumquats2010-01-22d01t04.flac
     4:05.11       43243916 B   ---   --   ---xx   flac  0.4307  mutualkumquats2010-01-22d01t05.flac
     4:25.35       46828364 B   ---   --   ---xx   flac  0.4715  mutualkumquats2010-01-22d01t06.flac
     6:29.62       68765468 B   ---   --   ---xx   flac  0.4400  mutualkumquats2010-01-22d01t07.flac
     0:43.73        7756940 B   ---   --   ---xx   flac  0.3442  mutualkumquats2010-01-22d01t08.flac
     5:44.04       60691052 B   ---   --   ---xx   flac  0.5190  mutualkumquats2010-01-22d01t09.flac
    34:36.32      366282060 B                            0.4697  (9 files)








More information about the bittorrent mailing list