[bittorrent] gd72-10-24.97614aud-ecm250.unknown-miller.flac16

Automated Mailer noreply-bt.e at etree.org
Thu Jan 21 13:35:04 MST 2010


Band:           Grateful Dead
Torrent Name:   gd72-10-24.97614aud-ecm250.unknown-miller.flac16
Uploaded by:    germain
DB Link:        http://db.etree.org/shn/97614
Details:        http://bt.etree.org/details.php?id=531757

Contact the seeder at http://db.etree.org/germain

If the link to this show does not work, it was probably removed for
being non-trade-friendly.

Description / text file:
-------------------------
This is a tagged version of shnid: 97614

Grateful Dead 
October 24, 1972
Performing Arts Center 
Milwaukee, WI
gd72-10-24.ecm-250.unknown-miller.97614.sbeok.flac16

Recording Info:
Sony ECM-250 -> Cassette Master 
(Sony TC-153/BASF Normal Bias 120 Min Tapes)

Transfer Info:
Cassette Master (Nakamichi Dragon) -> Dat -> CD

Mastering Info:
CD -> Samplitude Professional v10.2 -> Adobe Audition v1.5 -> FLAC
(3 Discs Audio / 2 Discs FLAC)

All Mastering By Charlie Miller
charliemiller87 at earthlink.net
February 24, 2009

Patch Info:
Unknown Mics -> ? -> Cassette supplies:
The Other One (5:48 - 6:25)

Notes:
-- All disc changes are seamless
-- Tape flip in Playing In The Band at 19:18
-- Recorded By a legendary local taper
-- Thanks to Dewey Gill for the discs
-- Thanks to John Wenzel for the patch source cassette
-- Thanks to Joe B. Jones for his help with the pitch correction
_______________________________________________________________________

--Set 1--
101-d1t01 - Tuning
102-d1t02 - Don't Ease Me In
103-d1t03 - Black Throated Wind
104-d1t04 - Bird Song
105-d1t05 - Mexicali Blues
106-d1t06 - Box of Rain
107-d1t07 - Big Railroad Blues
108-d1t08 - Jack Straw
109-d1t09 - China Cat Sunflower ->
110-d1t10 - I Know You Rider
111-d1t11 - Big River
112-d1t12 - Friend of the Devil
113-d1t13 - Beat It on Down the Line
114-d2t01 - Sugaree
115-d2t02 - Playing in the Band

--Set 2--
201-d2t03 - Tuning
202-d2t04 - The Promised Land
203-d2t05 - Ramble on Rose
204-d2t06 - El Paso
205-d2t07 - Deal
206-d3t01 - Truckin' ->
207-d3t02 - Drums ->
208-d3t03 - The Other One ->
209-d3t04 - He's Gone ->
210-d3t05 - The Other One
211-d3t06 - Casey Jones
212-d3t07 - Johnny B. Goode
________________________________________________________________________

Tagging notes:
Show information is embedded within the header of each flac file. 
It will display on any player capable of directly playing flac files. 
If converted to wav during processing, all tags will be stripped, 
however audio data will remain unaffected. 
If you must transcode to a lossy format, do so directly Flac > Lossy.
Use ffp to validate audio integrity.
Md5 values will change if tagging is altered.

B. Proctor 11-20-09
________________________________________________________________________


SHNTOOL OUTPUT:
    length     expanded size   cdr  WAVE problems filename
     3:12.00       33868844    ---   --   -----   gd72-10-24d1t01.wav
     6:16.46       66434636    ---   --   -----   gd72-10-24d1t02.wav
     7:29.49       79318892    ---   --   -----   gd72-10-24d1t03.wav
    12:50.22      135879788    ---   --   -----   gd72-10-24d1t04.wav
     3:58.36       42067916    ---   --   -----   gd72-10-24d1t05.wav
     6:29.44       68723132    ---   --   -----   gd72-10-24d1t06.wav
     5:52.52       62215148    ---   --   -----   gd72-10-24d1t07.wav
     5:20.15       56483324    ---   --   -----   gd72-10-24d1t08.wav
     5:27.65       57835724    ---   --   -----   gd72-10-24d1t09.wav
     7:27.32       78926108    ---   --   -----   gd72-10-24d1t10.wav
     5:59.69       63489932    ---   --   -----   gd72-10-24d1t11.wav
     4:51.34       51412412    ---   --   -----   gd72-10-24d1t12.wav
     4:00.19       42380732    ---   --   -----   gd72-10-24d1t13.wav
    10:21.03      109551500    ---   --   -----   gd72-10-24d2t01.wav
    23:54.64      253108172    ---   --   -----   gd72-10-24d2t02.wav
     3:07.74       33160892    ---   --   -----   gd72-10-24d2t03.wav
     3:29.39       36959372    ---   --   -----   gd72-10-24d2t04.wav
     8:12.11       86814716    ---   --   -----   gd72-10-24d2t05.wav
     5:24.32       57228908    ---   --   -----   gd72-10-24d2t06.wav
     6:40.33       70637660    ---   --   -----   gd72-10-24d2t07.wav
    11:17.09      119444012    ---   --   -----   gd72-10-24d3t01.wav
     3:03.25       32340044    ---   --   -----   gd72-10-24d3t02.wav
    23:15.69      246240332    ---   --   -----   gd72-10-24d3t03.wav
    12:47.25      135357644    ---   --   -----   gd72-10-24d3t04.wav
     3:01.14       31961372    ---   --   -----   gd72-10-24d3t05.wav
     6:13.09       65818412    ---   --   -----   gd72-10-24d3t06.wav
     4:24.33       46647260    ---   --   -----   gd72-10-24d3t07.wav
   204:29.23     2164306884 B                     (totals for 27 files)




More information about the bittorrent mailing list