[bittorrent] Newfound Road The Ark Ann Arbor, Michigan 1/17/2010

Automated Mailer noreply-bt.e at etree.org
Mon Jan 18 11:15:44 MST 2010


Band:           Other
Torrent Name:   Newfound Road The Ark Ann Arbor, Michigan 1/17/2010
Uploaded by:    zmanatl
DB Link:        
Details:        http://bt.etree.org/details.php?id=531666

Contact the seeder at http://db.etree.org/zmanatl

If the link to this show does not work, it was probably removed for
being non-trade-friendly.

Description / text file:
-------------------------
Newfound Road
The Ark
Ann Arbor, Michigan
1/17/2010

Source: Schoeps CCM4V'S(din)>Lunatec V2>Benchmark AD2K>
Sound Devices 722 (24/48)
Location: FOB/DFC/KFC/ZFC/AARP Row D, Seat 4, 6' High
DSP: Sound Devices 722>Sound Forge 9.0>CD Wave>flac(16)
Recorded By: Z-Man
Seeded By: Z-Man

Disc I 

01 Announcements And Introduction By Bill
02 I Miss You
03 These Days
04 Untitled
05 ?Instrumental
06 It's Raining The Blues
07 Band Introductions
08 Lonesome River
09 ?Instrumental
10 Try To Be
11 Before The Next Teardrop Falls
12 Get In Trouble
13 ?Instrumental

Disc II 

01 *? 
02 Houston (I'm Comin' To See You)
03 Banter/Happy Birthday
04 Please Come To Boston
05 ?Instrumental >
06 Ain't No Sunshine
07 ?Instrumental
08 That's How I Got To Memphis
09 East Tennessee Blues
10 #Rock Of Ages 
11 I Am The Man Thomas
12 Banter/Band Introductions
13 ?Instrumental
Encore:
14 Thanks/Banter
15 Little Maggie

* Joe Solo on Mandolin
# Acapela

Flac Fingerprint 

newfoundroad2010-01-17d01t01.flac:425c4c4de974c9b353584eb6f26017e9
newfoundroad2010-01-17d01t02.flac:9d8753ac273a2e1469d8f00d5a3c6f74
newfoundroad2010-01-17d01t03.flac:38a1191d9d7096cd99d369c404853603
newfoundroad2010-01-17d01t04.flac:f744eadcc29ff3649175a8713deccd6b
newfoundroad2010-01-17d01t05.flac:861597d5565ac1bb2401fb927b93918b
newfoundroad2010-01-17d01t06.flac:e87823aa224f4f6c1345ecb100db9035
newfoundroad2010-01-17d01t07.flac:86d8d93bc43777cfebaf979e16e8934f
newfoundroad2010-01-17d01t08.flac:4a1f2bd015a535c7d0427d5ced60747c
newfoundroad2010-01-17d01t09.flac:1d61fdd7ad4ecdeab9b16f7e0c29b7f9
newfoundroad2010-01-17d01t10.flac:9303e6cb2ffdaecffdb3c05ce0d864ef
newfoundroad2010-01-17d01t11.flac:20a637c677d6e89b98f6994dfe808d8f
newfoundroad2010-01-17d01t12.flac:0910472efb0a5531a2aa5cab6ac7b8a8
newfoundroad2010-01-17d01t13.flac:833d8e67833201d73770fcf773d0feae
newfoundroad2010-01-17d02t01.flac:16f56ddbd2c7bd297ff2e6c79c3fbe6f
newfoundroad2010-01-17d02t02.flac:93bfa09281b128b2812cc36b786f9500
newfoundroad2010-01-17d02t03.flac:907dfe78f2db47d8ccc4abbec8cae74e
newfoundroad2010-01-17d02t04.flac:6113a6c6ecda91b9e060dbdac52ea37a
newfoundroad2010-01-17d02t05.flac:48b59d2ad5d13ceec93e81b72a70ce02
newfoundroad2010-01-17d02t06.flac:bb45ac38e845555e8e675e0a60e38e53
newfoundroad2010-01-17d02t07.flac:55fbc76333704e2f2a1ad9ba8e17caf4
newfoundroad2010-01-17d02t08.flac:b7a1b21050caf84e6185ab2a5f128906
newfoundroad2010-01-17d02t09.flac:5b3bc81e5e5292c047142aa8fedd63fe
newfoundroad2010-01-17d02t10.flac:52e1384e1204c10de98472aae422d7fc
newfoundroad2010-01-17d02t11.flac:48c4f43687210579ec476f46b1115222
newfoundroad2010-01-17d02t12.flac:68809a86cb142176202c52a5465d9238
newfoundroad2010-01-17d02t13.flac:dbd43be4d793c3522bd058bbf5901e12
newfoundroad2010-01-17d02t14.flac:1ac208a5e52f7ead9ebbc86529db1945
newfoundroad2010-01-17d02t15.flac:f16f8bb7aeb035ed18933ee0d49dbf1b

Shntool 

    length     expanded size    cdr  WAVE problems  fmt   ratio  filename
     0:56.05        9890204 B   ---   --   ---xx   flac  0.3582  newfoundroad2010-01-17d01t01.flac
     3:44.30       39584204 B   ---   --   ---xx   flac  0.5500  newfoundroad2010-01-17d01t02.flac
     3:56.38       41719820 B   ---   --   ---xx   flac  0.4525  newfoundroad2010-01-17d01t03.flac
     4:34.69       48495932 B   ---   --   ---xx   flac  0.4058  newfoundroad2010-01-17d01t04.flac
     4:07.73       43742540 B   ---   --   ---xx   flac  0.4926  newfoundroad2010-01-17d01t05.flac
     2:35.41       27438476 B   ---   --   ---xx   flac  0.5044  newfoundroad2010-01-17d01t06.flac
     2:39.01       28049996 B   ---   --   ---xx   flac  0.4004  newfoundroad2010-01-17d01t07.flac
     4:34.10       48357164 B   ---   --   ---xx   flac  0.4185  newfoundroad2010-01-17d01t08.flac
     3:01.67       32086028 B   ---   --   ---xx   flac  0.4825  newfoundroad2010-01-17d01t09.flac
     2:31.36       26721116 B   ---   --   ---xx   flac  0.4867  newfoundroad2010-01-17d01t10.flac
     3:24.04       35995052 B   ---   --   ---xx   flac  0.4291  newfoundroad2010-01-17d01t11.flac
     3:16.64       34724972 B   ---   --   ---xx   flac  0.4593  newfoundroad2010-01-17d01t12.flac
     2:49.58       29948060 B   ---   --   ---xx   flac  0.4750  newfoundroad2010-01-17d01t13.flac
     2:08.42       22678028 B   ---   --   ---xx   flac  0.2769  newfoundroad2010-01-17d02t01.flac
     3:51.68       40908380 B   ---   --   ---xx   flac  0.4059  newfoundroad2010-01-17d02t02.flac
     1:23.20       14688284 B   ---   --   ---xx   flac  0.2969  newfoundroad2010-01-17d02t03.flac
     4:53.03       51692300 B   ---   --   ---xx   flac  0.4226  newfoundroad2010-01-17d02t04.flac
     1:23.49       14756492 B   ---   --   ---xx   flac  0.4771  newfoundroad2010-01-17d02t05.flac
     3:40.69       38970332 B   ---   --   ---xx   flac  0.4524  newfoundroad2010-01-17d02t06.flac
     3:52.21       40974236 B   ---   --   ---xx   flac  0.4689  newfoundroad2010-01-17d02t07.flac
     3:59.69       42321932 B   ---   --   ---xx   flac  0.3946  newfoundroad2010-01-17d02t08.flac
     4:32.11       48006716 B   ---   --   ---xx   flac  0.4368  newfoundroad2010-01-17d02t09.flac
     2:55.24       30926492 B   ---   --   ---xx   flac  0.3401  newfoundroad2010-01-17d02t10.flac
     3:25.12       36190268 B   ---   --   ---xx   flac  0.4650  newfoundroad2010-01-17d02t11.flac
     0:38.12        6731468 B   ---   --   ---xx   flac  0.4664  newfoundroad2010-01-17d02t12.flac
     2:31.05       26648204 B   ---   --   ---xx   flac  0.5096  newfoundroad2010-01-17d02t13.flac
     0:42.11        7434716 B   ---   --   ---xx   flac  0.3826  newfoundroad2010-01-17d02t14.flac
     3:25.29       36230252 B   ---   --   ---xx   flac  0.5149  newfoundroad2010-01-17d02t15.flac
    85:35.41      905911664 B                            0.4427  (28 files)






More information about the bittorrent mailing list