[bittorrent] gd72-09-28.94268.sbd.miller.sbeok.t-flac16

Automated Mailer noreply-bt.e at etree.org
Sun Jan 17 06:56:09 MST 2010


Band:           Grateful Dead
Torrent Name:   gd72-09-28.94268.sbd.miller.sbeok.t-flac16
Uploaded by:    germain
DB Link:        http://db.etree.org/shn/94268
Details:        http://bt.etree.org/details.php?id=531628

Contact the seeder at http://db.etree.org/germain

If the link to this show does not work, it was probably removed for
being non-trade-friendly.

Description / text file:
-------------------------
This is a Tagged version of shnid: 94268

Grateful Dead  
September 28, 1972
Stanley Theatre 
Jersey City, NJ
gd72-09-28.sbd.miller.94263.sbeok.flac16

Recording Info:
SBD -> Master Reel -> Cassette -> Dat -> CD

Transfer Info:
CD -> Samplitude Professional v10.1 -> FLAC
(4 Discs Audio / 2 Discs FLAC)

All Transfers and Mastering By Charlie Miller
charliemiller87 at earthlink.net
August 30, 2008

Patch Info:
1st Gen AUD supplies:
Truckin' (complete track)
Mississippi Half-Step Uptown Toodeloo (3:59 - 5:51)
I Know You Rider (3:19 - end of track)

Notes:
-- All disc changes are seamless
-- First few nothes of Bertha cut
-- I couldn't find a patch for the cut in The Other One
-- Numerous flaws cleaned up
______________________________________________________________________

--Set 1--
101-d1t01 - Truckin'
102-d1t02 - Loser
103-d1t03 - Beat It on Down the Line
104-d1t04 - Brown Eyed Women
105-d1t05 - Mexicali Blues
106-d1t06 - Mississippi Half-Step Uptown Toodeloo
107-d1t07 - Black Throated Wind
108-d1t08 - Don't Ease Me In
109-d1t09 - Big River
110-d1t10 - Tennessee Jed
111-d1t11 - The Promised Land
112-d1t12 - China Cat Sunflower ->
113-d1t13 - I Know You Rider
114-d2t01 - Playing in the Band

--Set 2--
201-d2t02 - Bertha
202-d2t03 - Greatest Story Ever Told
203-d2t04 - Brokedown Palace
204-d2t05 - Mexican Hat Dance Tuning
205-d2t06 - Me & My Uncle
206-d2t07 - Ramble On Rose
207-d2t08 - El Paso
208-d3t01 - He's Gone ->
209-d3t02 - The Other One ->
210-d3t03 - Me & Bobby McGee ->
211-d3t04 - The Other One ->
212-d3t05 - Wharf Rat
213-d3t06 - Sugar Magnolia
214-d4t01 - Not Fade Away ->
215-d4t02 - Goin' Down the Road Feeling Bad ->
216-d4t03 - Not Fade Away
______________________________________________________________________

Tagging notes:
Show information is embedded within the header of each flac file. 
It will display on any player capable of directly playing flac 
files. If converted to wav during processing, all tags will be 
stripped, however audio data will remain unaffected. If you must 
transcode to a lossy format, do so directly Flac > Lossy.
Use st5 to validate audio integrity.
Md5 values will change if tagging is altered.
B. Proctor 9-1-08
______________________________________________________________________




SHNTOOL OUTPUT:
    length     expanded size   cdr  WAVE problems filename
    10:44.24      113658092    ---   --   -----   gd72-09-28d1t01.wav
     6:29.16       68657276    ---   --   -----   gd72-09-28d1t02.wav
     3:46.40       39960524    ---   --   -----   gd72-09-28d1t03.wav
     5:14.28       55455500    ---   --   -----   gd72-09-28d1t04.wav
     3:59.40       42253724    ---   --   -----   gd72-09-28d1t05.wav
     6:57.09       73580012    ---   --   -----   gd72-09-28d1t06.wav
     6:49.60       72288764    ---   --   -----   gd72-09-28d1t07.wav
     4:08.41       43843676    ---   --   -----   gd72-09-28d1t08.wav
     4:59.44       52847132    ---   --   -----   gd72-09-28d1t09.wav
     8:22.38       88642220    ---   --   -----   gd72-09-28d1t10.wav
     3:20.35       35362364    ---   --   -----   gd72-09-28d1t11.wav
     6:14.17       66013628    ---   --   -----   gd72-09-28d1t12.wav
     6:09.71       65258636    ---   --   -----   gd72-09-28d1t13.wav
    20:40.53      218860700    ---   --   -----   gd72-09-28d2t01.wav
     5:52.07       62109308    ---   --   -----   gd72-09-28d2t02.wav
     5:39.54       59926652    ---   --   -----   gd72-09-28d2t03.wav
     5:39.52       59921948    ---   --   -----   gd72-09-28d2t04.wav
     1:00.24       10640492    ---   --   -----   gd72-09-28d2t05.wav
     3:07.28       33052700    ---   --   -----   gd72-09-28d2t06.wav
     6:27.55       68396204    ---   --   -----   gd72-09-28d2t07.wav
     4:32.02       47985548    ---   --   -----   gd72-09-28d2t08.wav
    15:02.11      159138716    ---   --   -----   gd72-09-28d3t01.wav
    24:43.00      261601244    ---   --   -----   gd72-09-28d3t02.wav
     5:41.13       60183020    ---   --   -----   gd72-09-28d3t03.wav
     3:32.08       37415660    ---   --   -----   gd72-09-28d3t04.wav
    11:04.11      117155516    ---   --   -----   gd72-09-28d3t05.wav
     8:45.59       92748812    ---   --   -----   gd72-09-28d3t06.wav
     4:17.63       45483020    ---   --   -----   gd72-09-28d4t01.wav
     7:04.38       74883020    ---   --   -----   gd72-09-28d4t02.wav
     3:47.36       40127516    ---   --   -----   gd72-09-28d4t03.wav
   214:14.02     2267451624 B                     (totals for 30 files)




More information about the bittorrent mailing list