[bittorrent] Ultraviolet Hippopotamus Cla-Zel Theatre Bowling Green, Ohio 1/14/2010 (Schoeps CCM4V'S FOB)

Automated Mailer noreply-bt.e at etree.org
Fri Jan 15 10:02:16 MST 2010


Band:           Other
Torrent Name:   Ultraviolet Hippopotamus Cla-Zel Theatre Bowling Green, Ohio 1/14/2010 (Schoeps CCM4V'S FOB)
Uploaded by:    zmanatl
DB Link:        
Details:        http://bt.etree.org/details.php?id=531592

Contact the seeder at http://db.etree.org/zmanatl

If the link to this show does not work, it was probably removed for
being non-trade-friendly.

Description / text file:
-------------------------
Ultraviolet Hippopotamus
Cla-Zel Theatre
Bowling Green, Ohio
1/14/2010

Source: Schoeps CCM4V'S(din)>Lunatec V2>Benchmark AD2K>
Sound Devices 722 (24/48)
Location: FOB/DFC/KFC/ZFC/AARP 27' From Stage, 7' High
DSP: Sound Devices 722>Sound Forge 9.0>CD Wave>flac(16)
Recorded By: Z-Man
Seeded By: Z-Man

Disc I 

01 Cream Soda
02 Cheshire Cat >
03 Ying Yang
04 The Scar
05 Songs For The Reapers 
06 The Marine

Flac Fingerprint 

uvhippo2010-01-14d01t01.flac:81dece51f8e24413921340f40ef1a98f
uvhippo2010-01-14d01t02.flac:c42e966d62fce930a910a297ee8ef762
uvhippo2010-01-14d01t03.flac:c0d7e90083ca2a637aa266a306645de0
uvhippo2010-01-14d01t04.flac:581954adae61848a5426fbf2fc37c96f
uvhippo2010-01-14d01t05.flac:4e7252fedcc267c8004ff5d890b3fdca
uvhippo2010-01-14d01t06.flac:659cb3e15f091543a2d975e9cf27bea0

Shntool 

    length     expanded size    cdr  WAVE problems  fmt   ratio  filename
    13:48.52      146181548 B   ---   --   ---xx   flac  0.5510  uvhippo2010-01-14d01t01.flac
    13:37.54      144245852 B   ---   --   ---xx   flac  0.5451  uvhippo2010-01-14d01t02.flac
     9:01.03       95439500 B   ---   --   ---xx   flac  0.5725  uvhippo2010-01-14d01t03.flac
     6:59.55       74041004 B   ---   --   ---xx   flac  0.5106  uvhippo2010-01-14d01t04.flac
     5:07.48       54267740 B   ---   --   ---xx   flac  0.5195  uvhippo2010-01-14d01t05.flac
    11:16.00      119246444 B   ---   --   ---xx   flac  0.5356  uvhippo2010-01-14d01t06.flac
    59:50.62      633422088 B                            0.5426  (6 files)








More information about the bittorrent mailing list