[bittorrent] Lee Harvey Osmond The Ark Ann Arbor, Michigan 1/13/2010

Automated Mailer noreply-bt.e at etree.org
Thu Jan 14 11:54:43 MST 2010


Band:           Other
Torrent Name:   Lee Harvey Osmond The Ark Ann Arbor, Michigan 1/13/2010
Uploaded by:    zmanatl
DB Link:        
Details:        http://bt.etree.org/details.php?id=531561

Contact the seeder at http://db.etree.org/zmanatl

If the link to this show does not work, it was probably removed for
being non-trade-friendly.

Description / text file:
-------------------------
Lee Harvey Osmond
The Ark
Ann Arbor, Michigan
1/13/2010

Source: Schoeps CCM4V'S(din)>Lunatec V2>Benchmark AD2K>
Sound Devices 722 (24/48)
Location: FOB/DFC/KFC/ZFC/AARP Row C, Seat 4, 6' High
DSP: Sound Devices 722>Sound Forge 9.0>CD Wave>flac(16)
Recorded By: Z-Man
Seeded By: Z-Man

Disc I 

01 Anouncements And Introduction By Kim
02 That's How I Walk 
03 Queen Bee
04 Banter On The Days Travel
05 Cuckoo's Nest
06 The Love Of One
07 You Drove Me Crazy And I'm Gonna Stay That Way >
08 Freedom
09 Banter
10 Shine 

Disc II 

01 Lucifer's Blues
02 Banter
03 *Fennel Square
04 Banter
05 Stoned
06 When I Leave This House
07 Banter On Rock And Roll Show
08 I Can't Be Satisfied
Encore:
09 Banter On Encore
10 Callin' On The Angels
11 I Can't Stand It

* Tom Solo

Tom Wilson On Guitar and Vocals 
Ray Farrugia On Percussion And Vocals

Flac Fingerprint 

lho2010-01-13d01t01.flac:4dafcf53b0b6f5da6efe7d9497f77273
lho2010-01-13d01t02.flac:f59bb0589ec10e53b7788a9129416810
lho2010-01-13d01t03.flac:f5ed3ccf70268678eca0eb3d85606c7c
lho2010-01-13d01t04.flac:85e403ed8054018add7db49c3c6d95c5
lho2010-01-13d01t05.flac:aa5a7bd5f6d9dea19031d7064aa1bce6
lho2010-01-13d01t06.flac:c3dae6ef763eb2f0cb984968df35cc75
lho2010-01-13d01t07.flac:374d0770acd4035a9f71ef7fcc6bbcc2
lho2010-01-13d01t08.flac:1208cae649be55a52155120f330338e3
lho2010-01-13d01t09.flac:678f457c95fc99150df0911e54e63eee
lho2010-01-13d01t10.flac:6c2108a4854b51f22d6dc8bab65bf467
lho2010-01-13d02t01.flac:469e0a09e4f6269e846b689cbcf23832
lho2010-01-13d02t02.flac:e0237bac81ab3f2c6b7c1c835ef63dd9
lho2010-01-13d02t03.flac:6f9b70311d07b3b681c23da3ea3fa52d
lho2010-01-13d02t04.flac:1c1960fb9b33dc057a27c787baef2ae2
lho2010-01-13d02t05.flac:1feb79e424cc0947687c576c6884db83
lho2010-01-13d02t06.flac:f8b4136e27fcaa46517ea0b7624ab415
lho2010-01-13d02t07.flac:af6844248065b045a5359a5e0159d2be
lho2010-01-13d02t08.flac:4da83edb97c9842eabe20e88adc4ed08
lho2010-01-13d02t09.flac:340b767f2b7c2491fa39f09ca622724b
lho2010-01-13d02t10.flac:127aaf5b266dda4e65a19cf7c80f8342
lho2010-01-13d02t11.flac:8c54a70905ff4584ad316cacab4804bb

Shntool 

    length     expanded size    cdr  WAVE problems  fmt   ratio  filename
     2:47.22       29510588 B   ---   --   ---xx   flac  0.3678  lho2010-01-13d01t01.flac
     4:14.14       44838572 B   ---   --   ---xx   flac  0.3997  lho2010-01-13d01t02.flac
     3:27.38       36604220 B   ---   --   ---xx   flac  0.5024  lho2010-01-13d01t03.flac
     2:07.42       22501628 B   ---   --   ---xx   flac  0.2933  lho2010-01-13d01t04.flac
     5:28.60       58000364 B   ---   --   ---xx   flac  0.4253  lho2010-01-13d01t05.flac
     5:56.40       62892524 B   ---   --   ---xx   flac  0.4408  lho2010-01-13d01t06.flac
     4:22.59       46355612 B   ---   --   ---xx   flac  0.3647  lho2010-01-13d01t07.flac
     6:15.62       66295868 B   ---   --   ---xx   flac  0.5064  lho2010-01-13d01t08.flac
     2:30.39       26551772 B   ---   --   ---xx   flac  0.2960  lho2010-01-13d01t09.flac
     5:58.14       63184172 B   ---   --   ---xx   flac  0.5049  lho2010-01-13d01t10.flac
     7:39.13       80998220 B   ---   --   ---xx   flac  0.4640  lho2010-01-13d02t01.flac
     1:43.45       18275084 B   ---   --   ---xx   flac  0.2779  lho2010-01-13d02t02.flac
     4:37.60       49003964 B   ---   --   ---xx   flac  0.3629  lho2010-01-13d02t03.flac
     2:44.19       28974332 B   ---   --   ---xx   flac  0.2636  lho2010-01-13d02t04.flac
     4:17.68       45494780 B   ---   --   ---xx   flac  0.5188  lho2010-01-13d02t05.flac
     3:37.17       38318828 B   ---   --   ---xx   flac  0.5205  lho2010-01-13d02t06.flac
     2:14.71       23804636 B   ---   --   ---xx   flac  0.2715  lho2010-01-13d02t07.flac
     5:37.18       59489180 B   ---   --   ---xx   flac  0.4904  lho2010-01-13d02t08.flac
     0:55.66        9857276 B   ---   --   ---xx   flac  0.3116  lho2010-01-13d02t09.flac
     5:27.29       57751052 B   ---   --   ---xx   flac  0.3366  lho2010-01-13d02t10.flac
     6:12.13       65651420 B   ---   --   ---xx   flac  0.5253  lho2010-01-13d02t11.flac
    88:16.59      934354092 B                            0.4288  (21 files)






More information about the bittorrent mailing list