[bittorrent] gd85-06-22.sbd.hillwig.13478.sbeok.shnf

Automated Mailer noreply-bt.e at etree.org
Wed Jan 13 20:48:26 MST 2010


Band:           Grateful Dead
Torrent Name:   gd85-06-22.sbd.hillwig.13478.sbeok.shnf
Uploaded by:    WHARFRAT73
DB Link:        http://db.etree.org/shn/13478
Details:        http://bt.etree.org/details.php?id=531552

Contact the seeder at http://db.etree.org/WHARFRAT73

If the link to this show does not work, it was probably removed for
being non-trade-friendly.

Description / text file:
-------------------------
Grateful Dead
June 22, 1985
Alpine Valley Music Theatre
East Troy, WI

Source:  
SBD > ? > PCM > DAT @ 44.1 (pre-emphasis on). Tape labelled as SBD > PCM > DAT, however first set split at ~40:00 suggests possible cassette gen

Transfer: 
DAT clone; Sony PCM-2600 > Audioquest coax > Turtle Beach Fiji> Soundforge 4.5 > pre-emphasis removed* > CD Wave 1.62 > MKWAct 0.97 by Craig Hillwig

*Pre-emphasis removed with FFT filter in Cool Edit Pro 1.2 at 32-bit
resolution.
See http://webclub.kcom.ne.jp/ma/takabin/eng/emphasis.html

Fades added to beginning and end of each set.

**No known analog or DAE gens*

Disc 1
SET1

1.  Tuning
2.  Hell In A Bucket
3.  Sugaree
4.  Walkin' Blues
5.  Candyman
6.  It's All Over Now
7.  Althea
8.  Cassidy
9.  Brown Eyed Women
10. One More Saturday Night

Disc 2
Set 2

1. Keep On Growing >
2. Mississippi Half-Step Uptown Toodeloo >
3. Lost Sailor >
4. Saint Of Circumstance >
5. Drums >
6. Space >
7. Dear Mr. Fantasy >
8. I Need A Miracle >
9. Stella Blue >
10. Throwing Stones >
11. Not Fade Away

Enc.
12. Brokedown Palace

Enc. will fit on the end of Set 1

Shntool:
    length     expanded size    cdr  WAVE problems  fmt   ratio  filename
     1:00.49       10699292 B   ---   --   ---xx    shn  0.5770  gd1985-06-22-noemph-d1t01.shn
     6:13.36       65881916 B   ---   --   ---xx    shn  0.6502  gd1985-06-22-noemph-d1t02.shn
     9:49.44      104003132 B   ---   --   ---xx    shn  0.6362  gd1985-06-22-noemph-d1t03.shn
     9:37.42      101881628 B   ---   --   ---xx    shn  0.6051  gd1985-06-22-noemph-d1t04.shn
     6:58.42       73834028 B   ---   --   ---xx    shn  0.6117  gd1985-06-22-noemph-d1t05.shn
     7:33.11       79935116 B   ---   --   ---xx    shn  0.6316  gd1985-06-22-noemph-d1t06.shn
     8:51.61       93811916 B   ---   --   ---xx    shn  0.6308  gd1985-06-22-noemph-d1t07.shn
     5:38.04       59632652 B   ---   --   ---xx    shn  0.6437  gd1985-06-22-noemph-d1t08.shn
     5:58.42       63250028 B   ---   --   ---xx    shn  0.6461  gd1985-06-22-noemph-d1t09.shn
     4:55.50       52155644 B   ---   --   ---xx    shn  0.6464  gd1985-06-22-noemph-d1t10.shn
     5:01.07       53112908 B   ---   --   ---xx    shn  0.6236  gd1985-06-22-noemph-d2t01.shn
     7:25.35       78580364 B   ---   --   ---xx    shn  0.6268  gd1985-06-22-noemph-d2t02.shn
     6:26.47       68200988 B   ---   --   ---xx    shn  0.6250  gd1985-06-22-noemph-d2t03.shn
     7:25.47       78608588 B   ---   --   ---xx    shn  0.6436  gd1985-06-22-noemph-d2t04.shn
    12:26.01      131596796 B   ---   --   ---xx    shn  0.5868  gd1985-06-22-noemph-d2t05.shn
     5:37.67       59604428 B   ---   --   ---xx    shn  0.5693  gd1985-06-22-noemph-d2t06.shn
     6:31.65       69125324 B   ---   --   ---xx    shn  0.6225  gd1985-06-22-noemph-d2t07.shn
     3:39.64       38782172 B   ---   --   ---xx    shn  0.6547  gd1985-06-22-noemph-d2t08.shn
     7:20.62       77761868 B   ---   --   ---xx    shn  0.6182  gd1985-06-22-noemph-d2t09.shn
     8:59.66       95234876 B   ---   --   ---xx    shn  0.6464  gd1985-06-22-noemph-d2t10.shn
     7:00.44       74191532 B   ---   --   ---xx    shn  0.6367  gd1985-06-22-noemph-d2t11.shn
     5:20.60       56589164 B   ---   --   ---xx    shn  0.6210  gd1985-06-22-noemph-d2t12.shn
   149:53.46     1586474360 B                            0.6252  (22 files)




More information about the bittorrent mailing list